<?xml version="1.0" standalone="no"?>
<!DOCTYPE svg PUBLIC "-//W3C//DTD SVG 1.1//EN" "http://www.w3.org/Graphics/SVG/1.1/DTD/svg11.dtd" >
<svg xmlns="http://www.w3.org/2000/svg">
<defs>
  <font id="cptvet" horiz-adv-x="256">
    <font-face font-family="cptvet"
      units-per-em="256" ascent="256"
      descent="0" />
    <missing-glyph horiz-adv-x="0" />
    <glyph glyph-name="syringe"
      unicode="&#xEA04;"
      horiz-adv-x="256" d="M184.295 245.098L177.089 237.306L180.558 233.943C182.466 232.094 183.909 230.263 183.764 229.873C183.619 229.484 178.694 224.178 172.82 218.084L162.141 207.003L143.004 225.678L123.868 244.352L116.194 236.678L108.52 229.004L123.767 213.734L139.013 198.463L131.733 191.232C127.729 187.254 123.949 184 123.333 184C122.717 184 118.515 179.776 113.994 174.613C109.474 169.449 101.551 161.526 96.387 157.006C91.224 152.485 87 148.413 87 147.958C87 147.502 75.085 135.062 60.523 120.314L34.046 93.5L45.019 82.489L55.991 71.477L29.503 45.003L3.015 18.529L10.742 10.756L18.47 2.983L44.997 29.497L71.524 56.01L82.502 44.998L93.479 33.986L146.235 86.735L198.991 139.484L214.264 124.236L229.537 108.987L236.941 116.441L244.346 123.895L226.173 142.487C216.178 152.713 208 161.425 208 161.849C208 162.272 212.791 167.683 218.646 173.874L229.292 185.13L233.428 181.071L237.563 177.013L244.945 184.445L252.327 191.877L239.722 205.188C225.441 220.269 192.686 253.028 191.971 252.945C191.712 252.915 188.258 249.384 184.295 245.098M207.505 206.995L214.457 199.989L202.998 188.498L191.54 177.007L184.265 184.233L176.991 191.459L188.229 202.73C194.41 208.928 199.712 214 200.011 214C200.309 214 203.682 210.848 207.505 206.995M169.006 168.494L183.486 153.988L138.493 109.049L93.5 64.109L79.086 79.132L64.672 94.155L71.828 101.311L78.984 108.466L86.492 101.008L94 93.55L101.501 101.001L109.003 108.453L101.489 116.011L93.975 123.57L97.998 127.498L102.021 131.426L108.785 124.713C112.506 121.021 116.001 118 116.552 118C117.103 118 120.68 121.15 124.501 125.001L131.448 132.002L124.212 139.286L116.976 146.571L120.79 150.295L124.604 154.019L132.458 146.782L140.313 139.545L147.155 147.022C150.918 151.135 153.998 154.737 153.999 155.027C153.999 155.317 150.85 158.68 146.999 162.501L139.998 169.448L146.722 176.224C150.421 179.951 153.689 183 153.986 183C154.283 183 161.042 176.472 169.006 168.494" />
    <glyph glyph-name="small-add"
      unicode="&#xEA05;"
      horiz-adv-x="256" d="M192 138.6666666666667L138.6666666666667 138.6666666666667L138.6666666666667 192L117.3333333333333 192L117.3333333333333 138.6666666666667L64 138.6666666666667L64 117.3333333333334L117.3333333333333 117.3333333333334L117.3333333333333 64L138.6666666666667 64L138.6666666666667 117.3333333333334L192 117.3333333333334L192 138.6666666666667z" />
    <glyph glyph-name="add"
      unicode="&#xEA06;"
      horiz-adv-x="256" d="M234.6666666666667 138.6666666666667H138.6666666666667V234.6666666666667C138.6666666666667 241.0666666666667 134.4 245.3333333333334 128 245.3333333333334S117.3333333333333 241.0666666666667 117.3333333333333 234.6666666666667V138.6666666666667H21.3333333333333C14.9333333333333 138.6666666666667 10.6666666666667 134.4 10.6666666666667 128S14.9333333333333 117.3333333333334 21.3333333333333 117.3333333333334H117.3333333333333V21.3333333333333C117.3333333333333 14.9333333333333 121.6 10.6666666666667 128 10.6666666666667S138.6666666666667 14.9333333333334 138.6666666666667 21.3333333333333V117.3333333333334H234.6666666666667C241.0666666666667 117.3333333333334 245.3333333333333 121.6 245.3333333333333 128S241.0666666666667 138.6666666666667 234.6666666666667 138.6666666666667z" />
    <glyph glyph-name="image-add"
      unicode="&#xEA07;"
      horiz-adv-x="256" d="M0 133.5L0 11L74.5 11L149 11L149 21.5L149 32L85 32L21 32L21 133.5L21 235L122.5 235L224 235L224 171L224 107L234.5 107L245 107L245 181.5L245 256L122.5 256L0 256L0 133.5M86.365 211.969C84.64 211.437 81.055 209.539 78.398 207.751C61.81 196.589 59.243 174.276 72.872 159.706C80.723 151.313 91.089 147.845 101.75 150.045C109.634 151.672 113.757 153.964 119.128 159.706C133.929 175.529 129.396 200.016 109.795 210.129C104.955 212.627 91.839 213.656 86.365 211.969M101.712 190.034C110.127 184.903 106.077 171 96.167 171C85.783 171 81.567 184.717 90.311 190.048C94.356 192.515 97.65 192.511 101.712 190.034M154 126.5C139.433 111.925 127.175 100 126.76 100C126.346 100 116.814 106.975 105.579 115.5C94.344 124.025 84.777 131 84.318 131C83.11 131 39 86.678 39 85.465C39 84.174 52.219 71 53.514 71C54.044 71 61.703 78.215 70.534 87.034L86.59 103.068L107.279 87.534C118.659 78.99 128.316 72 128.74 72C129.164 72 144.576 87.07 162.989 105.489L196.468 138.979L189.511 145.989C185.684 149.845 182.088 153 181.52 153C180.951 153 168.567 141.075 154 126.5M202.775 69.25L202.5 53.5L186.75 53.225L171 52.949L171 42.475L171 32L187 32L203 32L203 16L203 0L213.5 0L224 0L224 16L224 32L240 32L256 32L256 42.5L256 53L240 53L224 53L224 69L224 85L213.525 85L203.051 85L202.775 69.25" />
    <glyph glyph-name="arrow-left"
      unicode="&#xEA08;"
      horiz-adv-x="256" d="M50.999 172.499L6.506 127.997L51.241 83.262L95.976 38.527L103.498 45.998L111.019 53.469L79.271 85.229L47.522 116.99L141.011 117.245L234.5 117.5L234.5 128L234.5 138.5L141.244 139L47.988 139.5L79.485 170.985L110.982 202.471L103.766 209.735C99.797 213.731 96.312 217 96.021 217C95.73 217 75.47 196.974 50.999 172.499" />
    <glyph glyph-name="arrow-right"
      unicode="&#xEA09;"
      horiz-adv-x="256" d="M152.24 209.757L144.997 202.514L176.743 170.757L208.488 139L114.744 139L21 139L21 128L21 117L114.744 117L208.488 117L176.734 85.235L144.981 53.469L152.502 45.998L160.024 38.527L204.759 83.262L249.494 127.997L205.001 172.499C180.53 196.974 160.278 217 159.996 217C159.714 217 156.223 213.741 152.24 209.757" />
    <glyph glyph-name="menu"
      unicode="&#xEA0A;"
      horiz-adv-x="256" d="M0 202.5L0 192L128 192L256 192L256 202.5L256 213L128 213L0 213L0 202.5M0 128L0 117L128 117L256 117L256 128L256 139L128 139L0 139L0 128M0 53.5L0 43L128 43L256 43L256 53.5L256 64L128 64L0 64L0 53.5" />
    <glyph glyph-name="calendar"
      unicode="&#xEA0B;"
      horiz-adv-x="256" d="M202.6666666666667 224V245.3333333333334A10.666666666666666 10.666666666666666 0 0 1 181.3333333333333 245.3333333333334V224zM74.6666666666667 224V245.3333333333334A10.666666666666666 10.666666666666666 0 0 1 53.3333333333333 245.3333333333334V224zM224 10.6666666666667H32A32 32 0 0 0 0 42.6666666666667V181.3333333333334A32 32 0 0 0 32 213.3333333333334H224A32 32 0 0 0 256 181.3333333333334V42.6666666666667A32 32 0 0 0 224 10.6666666666667zM234.6666666666667 160H21.3333333333333V42.6666666666667A10.666666666666666 10.666666666666666 0 0 1 32 32H224A10.666666666666666 10.666666666666666 0 0 1 234.6666666666667 42.6666666666667z" />
    <glyph glyph-name="calendar-add"
      unicode="&#xEA0C;"
      horiz-adv-x="256" d="M202.6666666666667 224V245.3333333333334A10.666666666666666 10.666666666666666 0 0 1 181.3333333333333 245.3333333333334V224zM74.6666666666667 224V245.3333333333334A10.666666666666666 10.666666666666666 0 0 1 53.3333333333333 245.3333333333334V224zM224 10.6666666666667H32A32 32 0 0 0 0 42.6666666666667V181.3333333333334A32 32 0 0 0 32 213.3333333333334H224A32 32 0 0 0 256 181.3333333333334V42.6666666666667A32 32 0 0 0 224 10.6666666666667zM234.6666666666667 160H21.3333333333333V42.6666666666667A10.666666666666666 10.666666666666666 0 0 1 32 32H224A10.666666666666666 10.666666666666666 0 0 1 234.6666666666667 42.6666666666667zM170.6666666666667 106.6666666666667L138.6666666666667 106.6666666666667L138.6666666666667 138.6666666666667L117.3333333333333 138.6666666666667L117.3333333333333 106.6666666666667L85.3333333333333 106.6666666666667L85.3333333333333 85.3333333333333L117.3333333333333 85.3333333333333L117.3333333333333 53.3333333333333L138.6666666666667 53.3333333333333L138.6666666666667 85.3333333333333L170.6666666666667 85.3333333333333L170.6666666666667 106.6666666666667z" />
    <glyph glyph-name="analytics"
      unicode="&#xEA0D;"
      horiz-adv-x="256" d="M11 128L11 21L21.5 21L32 21L32 128L32 235L21.5 235L11 235L11 128M64 101L64 21L74.5 21L85 21L85 101L85 181L74.5 181L64 181L64 101M171 101L171 21L181.5 21L192 21L192 101L192 181L181.5 181L171 181L171 101M117 74.466L117 20.932L127.75 21.216L138.5 21.5L138.759 74.75L139.018 128L128.009 128L117 128L117 74.466M224 74.5L224 21L234.5 21L245 21L245 74.5L245 128L234.5 128L224 128L224 74.5" />
    <glyph glyph-name="small-down"
      unicode="&#xEA0E;"
      horiz-adv-x="256" d="M77.723 157.225C74.025 153.499 71 150.008 71 149.468C71 148.929 83.825 135.668 99.5 120L128 91.513L156.5 120C172.175 135.668 185 148.952 185 149.52C185 150.089 181.846 153.684 177.991 157.509L170.982 164.464L149.491 142.991L128 121.517L106.741 142.759C95.049 154.441 85.25 164 84.965 164C84.68 164 81.421 160.951 77.723 157.225" />
    <glyph glyph-name="small-up"
      unicode="&#xEA0F;"
      horiz-adv-x="256" d="M99.243 135.744C83.71 120.202 71 107.028 71 106.467C71 105.906 74.154 102.316 78.009 98.491L85.018 91.536L106.509 113.009L128 134.483L149.491 113.009L170.982 91.536L177.991 98.491C181.846 102.316 185 105.911 185 106.48C185 107.485 128.984 164 127.987 164C127.712 164 114.777 151.285 99.243 135.744" />
    <glyph glyph-name="small-right"
      unicode="&#xEA10;"
      horiz-adv-x="256" d="M98.491 177.991L91.536 170.982L113.009 149.491L134.483 128L113.009 106.509L91.536 85.018L98.491 78.009C102.316 74.154 105.911 71 106.48 71C107.048 71 120.332 83.825 136 99.5L164.487 128L136 156.5C120.332 172.175 107.048 185 106.48 185C105.911 185 102.316 181.846 98.491 177.991" />
    <glyph glyph-name="small-left"
      unicode="&#xEA11;"
      horiz-adv-x="256" d="M120 156.5L91.513 128L120 99.5C135.668 83.825 148.952 71 149.52 71C150.089 71 153.684 74.154 157.509 78.009L164.464 85.018L142.991 106.509L121.517 128L142.991 149.491L164.464 170.982L157.509 177.991C153.684 181.846 150.089 185 149.52 185C148.952 185 135.668 172.175 120 156.5" />
    <glyph glyph-name="scissors"
      unicode="&#xEA12;"
      horiz-adv-x="256" d="M42.708 234.787C38.544 231.329 35.106 228.171 35.068 227.768C35.031 227.366 52.775 205.625 74.5 179.456C96.225 153.287 114 131.65 114 131.374C114 130.394 78.673 87.944 78.092 88.225C77.766 88.383 75.172 89.736 72.327 91.234C69.482 92.731 64.065 94.466 60.29 95.089C46.572 97.355 33.497 93.157 23.387 83.241C14.246 74.276 10.475 64.225 11.184 50.718C12.787 20.183 45.29 1.796 73.188 15.644C78.72 18.39 86.921 26.302 90.414 32.263C95.665 41.226 97.269 53.684 94.5 64C93.688 67.025 93.018 70.031 93.012 70.68C93 71.862 126.588 113.241 128.008 113.794C128.423 113.955 136.623 104.592 146.231 92.986L163.699 71.884L161.85 65.213C155.331 41.704 168.626 18.435 192.236 12.032C195.107 11.254 200.245 10.92 205.282 11.184C235.849 12.788 254.206 45.293 240.329 73.241C237.228 79.487 228.629 87.808 221.653 91.312C210.064 97.134 194.299 97.02 183.25 91.036L177.95 88.165L159.997 109.779C144.467 128.475 142.224 131.601 143.375 132.946C155.783 147.444 220.316 226.7 220.393 227.536C220.514 228.843 206.121 241.23 204.995 240.788C204.592 240.63 187.29 219.888 166.546 194.695C145.802 169.502 128.429 149.027 127.94 149.195C127.45 149.363 110.11 169.975 89.406 195C68.702 220.025 51.429 240.629 51.021 240.787C50.614 240.944 46.873 238.244 42.708 234.787M59.087 73.573C63.495 72.833 70.154 67.302 72.442 62.481C74.516 58.109 74.65 49.491 72.714 44.859C66.27 29.435 44.443 27.834 35.422 42.123C31.438 48.435 31.068 55.575 34.375 62.333C38.144 70.039 47.354 75.73 54 74.461C54.825 74.303 57.114 73.904 59.087 73.573M210.617 72.877C212.331 72.357 215.355 70.312 217.336 68.331C230.192 55.474 222.687 34.165 204.647 32.303C199.934 31.817 198.243 32.136 193.667 34.375C179.017 41.542 177.332 60.524 190.457 70.535C195.763 74.582 202.428 75.356 210.617 72.877" />
    <glyph glyph-name="remove"
      unicode="&#xEA13;"
      horiz-adv-x="256" d="M45.723 210.225C42.025 206.499 39 203.013 39 202.48C39 201.946 55.535 184.97 75.745 164.755L112.49 128L75.745 91.245C55.535 71.03 39 54.03 39 53.468C39 52.171 52.219 39 53.52 39C54.054 39 71.03 55.535 91.245 75.745L128 112.49L165.265 75.235L202.53 37.98L209.765 45.263C213.744 49.269 217 52.984 217 53.519C217 54.053 200.465 71.03 180.255 91.245L143.51 128L180.255 164.755C200.465 184.97 217 201.97 217 202.532C217 203.829 203.781 217 202.48 217C201.946 217 184.97 200.465 164.755 180.255L128 143.51L91.245 180.255C71.03 200.465 54.03 217 53.468 217C52.906 217 49.421 213.951 45.723 210.225" />
    <glyph glyph-name="small-remove"
      unicode="&#xEA14;"
      horiz-adv-x="256" d="M77.723 178.225C74.025 174.499 71 171.015 71 170.484C71 169.952 80.333 160.176 91.741 148.759L112.482 128L91.741 107.241C80.333 95.824 71 86.024 71 85.464C71 84.173 84.22 71 85.516 71C86.048 71 95.824 80.333 107.241 91.741L128 112.482L148.759 91.741C160.176 80.333 169.976 71 170.536 71C171.095 71 174.68 74.15 178.5 78L185.446 85L178.481 92.25C174.649 96.238 165.216 105.913 157.518 113.752L143.522 128.004L164.261 148.761C175.667 160.177 185 169.976 185 170.536C185 171.827 171.78 185 170.484 185C169.952 185 160.176 175.667 148.759 164.259L128 143.518L107.241 164.259C95.824 175.667 86.024 185 85.464 185C84.905 185 81.421 181.951 77.723 178.225" />
    <glyph glyph-name="increase"
      unicode="&#xEA15;"
      horiz-adv-x="256" d="M128 245.3333333333334L192 160L64 160L128 245.3333333333334zM128 10.6666666666667L192 96L64 96L128 10.6666666666667z" />
    <glyph glyph-name="euro"
      unicode="&#xEA16;"
      horiz-adv-x="256" d="M155.5626666666667 208.1386666666667C141.856 208.1386666666667 130.6453333333333 204.0533333333334 121.952 195.8933333333333S107.4453333333333 175.3813333333333 104.5226666666667 158.848H171.0186666666667V136.3946666666667H102.336C101.9626666666667 128.0853333333333 101.8133333333333 126.3573333333334 102.336 116.128H161.8346666666666V93.8133333333333H104.8106666666667C111.0293333333333 63.4773333333333 128.7253333333334 48.3093333333333 157.8986666666667 48.3093333333333C171.7973333333333 48.3093333333333 186.048 51.3173333333334 200.6293333333333 57.3546666666667V27.7546666666667C173.28 15.0186666666667 126.9653333333333 13.6426666666667 99.0613333333333 38.112C84.4266666666667 50.944 74.8693333333333 69.5146666666667 70.4 93.824H48.224V116.1386666666667H68.0533333333333C67.744 121.792 67.5733333333333 120.6506666666667 68.0533333333333 136.4053333333333H48.224V158.848H70.1013333333333C73.792 183.2533333333333 83.0826666666667 202.4 97.952 216.3093333333333C112.832 230.208 132.0213333333333 237.1626666666667 155.552 237.1626666666667C174.9866666666667 237.1626666666667 192.3946666666667 232.8853333333334 207.7653333333333 224.3306666666667L195.52 197.056C180.544 204.4373333333334 167.232 208.1386666666667 155.5626666666667 208.1386666666667z" />
    <glyph glyph-name="preview"
      unicode="&#xEA17;"
      horiz-adv-x="256" d="M110.5 211.494C94.91 208.621 78.139 201.04 63.447 190.225C45.987 177.371 24.354 153.513 12.57 134.116L8.824 127.949L13.372 120.654C23.673 104.125 42.529 82.416 56.486 71.012C71.005 59.15 85.243 51.39 101.929 46.245C109.81 43.814 111.909 43.601 128 43.601C144.091 43.601 146.19 43.814 154.071 46.245C170.757 51.39 184.995 59.15 199.514 71.012C213.481 82.423 232.327 104.126 242.644 120.679L247.207 128L242.448 135.635C221.036 169.99 188.512 198.21 159.026 208.019C144.446 212.869 125.374 214.234 110.5 211.494M141.736 190.555C163.126 186.056 183.209 173.613 201.792 153.345C209.182 145.285 221.991 129.213 221.991 128C221.991 126.796 209.209 110.745 201.923 102.798C174.614 73.014 142.706 59.461 114.073 65.485C92.899 69.939 72.678 82.511 54.101 102.772C46.796 110.74 34.009 126.795 34.009 128C34.009 129.213 46.818 145.285 54.208 153.345C81.4 183.001 113.26 196.546 141.736 190.555M121.854 169.936C110.094 168.583 96.831 159.549 90.823 148.799C81.636 132.361 84.607 111.488 98.048 98.048C122.614 73.481 164.495 87.339 170.057 121.874C173.303 142.027 160.013 162.766 140 168.778C135.042 170.268 128.415 170.69 121.854 169.936M139.344 145.815C141.458 144.37 144.383 141.458 145.844 139.344C148.141 136.02 148.5 134.486 148.5 128C148.5 121.468 148.147 119.984 145.763 116.5C144.258 114.3 141.366 111.375 139.337 110C136.197 107.873 134.506 107.5 128 107.5C121.494 107.5 119.803 107.873 116.663 110C105.382 117.643 103.643 133.49 113.054 142.9C117.779 147.625 121.79 149.097 129 148.753C134.043 148.512 136.362 147.853 139.344 145.815" />
    <glyph glyph-name="folder"
      unicode="&#xEA18;"
      horiz-adv-x="256" d="M0 128L0 0L128 0L256 0L256 106.5L256 213L194.732 213L133.463 213L117.482 234.461L101.5 255.923L50.75 255.961L0 256L0 128M106.518 213.539L122.5 192.077L178.756 192.039L235.011 192L234.756 106.75L234.5 21.5L128 21.5L21.5 21.5L21.242 127C21.101 185.025 21.199 233.062 21.461 233.75C21.829 234.716 29.718 235 56.237 235L90.537 235L106.518 213.539" />
    <glyph glyph-name="doctor"
      unicode="&#xEA19;"
      horiz-adv-x="256" d="M42.802 250.75L42.5 245.5L28.926 245C16.304 244.535 15.069 244.312 11.3 241.817C6.278 238.494 2.872 233.14 2.299 227.668C1.941 224.25 16.514 111.597 18.621 101.5C19.529 97.146 23.527 89.608 27.067 85.577C28.755 83.654 32.694 80.825 35.818 79.29C41.16 76.667 42.487 76.47 58 76L74.5 75.5L74.762 37.75L75.024 0L149.512 0L224 0L224 33C224 63.819 224.116 66 225.758 66C228.965 66 237.426 71.143 242.797 76.358C254.288 87.515 258.443 102.199 254.448 117.54C250.611 132.274 238.003 144.547 223.153 148.002C214.492 150.017 203.537 148.908 195.65 145.217C173.608 134.902 164.703 108.848 175.671 86.759C179.932 78.176 191.043 69.006 201.27 65.632C202.901 65.093 203.018 63.354 202.77 43.274L202.5 21.5L149.25 21.241L96 20.982L96 48.405L96 75.828L112.25 76.173C126.407 76.474 129.114 76.801 133.268 78.711C139.798 81.713 147.427 89.758 149.411 95.733C151.598 102.315 169.121 224.64 168.343 227.886C167.369 231.946 164.432 237.279 161.834 239.702C157.317 243.915 152.854 245 140.032 245L128 245L128 250.5L128 256L117.609 256L107.219 256L106.506 245.098C106.115 239.102 106.119 229.427 106.517 223.598L107.239 213L117.619 213L128 213L128 218.5L128 224L137.5 224C142.911 224 147 223.586 147 223.039C147 219.699 129.856 104.1 129.11 102.408C128.602 101.258 126.615 99.57 124.692 98.658C121.639 97.209 116.657 97 85.248 97C47.676 97 44.321 97.334 41.697 101.339C39.581 104.57 39.46 105.32 31.11 167.082L23.415 224L33.208 224L43 224L43 218.5L43 213L53.5 213L64 213L64 234.5L64 256L53.552 256L43.105 256L42.802 250.75M221.5 126.121C229.728 122.347 234.143 115.533 234.142 106.611C234.142 100.224 233.018 97.229 228.833 92.462C224.63 87.675 220.176 85.833 212.892 85.868C206.348 85.899 202.795 87.407 198.206 92.101C188.974 101.543 190.745 117.395 201.812 124.381C208.236 128.436 215.126 129.045 221.5 126.121" />
    <glyph glyph-name="link"
      unicode="&#xEA1C;"
      horiz-adv-x="256" d="M164.116 242.956C150.241 239.322 145.721 235.976 120.438 210.625C100.865 190.998 96.831 186.441 93.773 180.5C88.744 170.729 86.756 162.344 86.776 151C86.809 133.017 92.213 120.081 105.474 106.246L113.5 97.872L120.906 105.366L128.311 112.86L123.753 117.93C107.952 135.505 104.042 152.34 111.965 168.685C114.8 174.533 118.123 178.355 135.384 195.617C146.448 206.681 157.536 216.902 160.025 218.33C162.513 219.758 167.461 221.672 171.02 222.584C199.324 229.835 228.015 203.446 223.229 174.563C221.064 161.498 218.915 158.423 196.973 137L177.001 117.5L184.116 110.25C188.029 106.263 191.536 103 191.909 103C192.281 103 201.863 112.112 213.202 123.25C229.602 139.36 234.552 144.85 237.411 150.101C246.94 167.601 247.547 190.924 238.926 208.312C232.674 220.922 221.625 232.257 209.739 238.255C196.605 244.883 178.571 246.742 164.116 242.956M135.07 150.596L127.641 143.091L132.273 138.139C148.575 120.711 152.11 103.135 142.984 84.881C141.603 82.119 133.165 72.891 120.147 59.906C97.701 37.518 94.131 34.98 82.099 32.861C54.318 27.967 28.192 53.801 32.799 81.608C34.878 94.152 37.285 97.567 59.158 119L79.057 138.5L71.59 145.914L64.122 153.329L49.425 139.414C22.388 113.816 16.841 106.519 12.997 91.489C10.59 82.077 10.4 69.171 12.535 60.114C15.972 45.534 26.976 30.174 40.43 21.175C50.897 14.174 58.046 11.935 72 11.286C85.503 10.658 92.362 12.021 104 17.645C110.82 20.941 113.636 23.409 135.069 44.885C155.156 65.011 159.169 69.534 162.234 75.5C167.204 85.176 169.201 93.632 169.201 105C169.201 123.084 163.779 136.158 150.678 149.667L142.5 158.101L135.07 150.596" />
    <glyph glyph-name="small-triangle-up"
      unicode="&#xEA1D;"
      horiz-adv-x="256" d="M137.0453333333333 176.32C133.1413333333333 182.56 122.8586666666667 182.56 118.9546666666667 176.32L65.6213333333333 90.9866666666667C63.5733333333333 87.7013333333333 63.456 83.552 65.344 80.16S70.784 74.6666666666667 74.6666666666667 74.6666666666667H181.3333333333333C185.216 74.6666666666667 188.7786666666667 76.768 190.6666666666667 80.16S192.4373333333333 87.7013333333334 190.3893333333333 90.9866666666667L137.0453333333333 176.32z" />
    <glyph glyph-name="small-triangle-down"
      unicode="&#xEA1E;"
      horiz-adv-x="256" d="M181.3333333333333 181.3333333333334H74.6666666666667C70.7946666666667 181.3333333333334 67.2213333333333 179.232 65.3333333333333 175.84C63.456 172.448 63.5626666666667 168.2986666666667 65.6213333333333 165.0133333333334L118.9546666666667 79.68C120.9066666666667 76.5653333333333 124.32 74.6666666666667 128 74.6666666666667S135.0933333333333 76.5653333333333 137.0453333333333 79.68L190.3786666666667 165.0133333333333C192.4373333333333 168.2986666666667 192.544 172.448 190.6666666666667 175.84C188.7786666666667 179.232 185.2053333333333 181.3333333333334 181.3333333333333 181.3333333333334z" />
    <glyph glyph-name="gps"
      unicode="&#xEA1F;"
      horiz-adv-x="256" d="M128 170.6666666666667C104.4266666666667 170.6666666666667 85.3333333333333 151.5733333333333 85.3333333333333 128S104.4266666666667 85.3333333333333 128 85.3333333333333S170.6666666666667 104.4266666666667 170.6666666666667 128S151.5733333333333 170.6666666666667 128 170.6666666666667zM223.36 138.6666666666667C218.4533333333333 183.1466666666667 183.1466666666667 218.4533333333333 138.6666666666667 223.36V245.3333333333334H117.3333333333333V223.36C72.8533333333333 218.4533333333333 37.5466666666667 183.1466666666667 32.64 138.6666666666667H10.6666666666667V117.3333333333334H32.64C37.5466666666667 72.8533333333334 72.8533333333333 37.5466666666667 117.3333333333333 32.64V10.6666666666667H138.6666666666667V32.64C183.1466666666667 37.5466666666667 218.4533333333333 72.8533333333334 223.36 117.3333333333334H245.3333333333333V138.6666666666667H223.36zM128 53.3333333333333C86.72 53.3333333333333 53.3333333333333 86.72 53.3333333333333 128S86.72 202.6666666666667 128 202.6666666666667S202.6666666666667 169.28 202.6666666666667 128S169.28 53.3333333333333 128 53.3333333333333z" />
    <glyph glyph-name="mail"
      unicode="&#xEA20;"
      horiz-adv-x="256" d="M23 233.613C19.975 232.942 16.116 231.659 14.425 230.761C9.884 228.352 4.541 221.976 2.391 216.404C0.59 211.734 0.5 207.497 0.5 127.5L0.5 43.5L2.804 38.5C7.009 29.373 14.162 23.942 24.434 22.077C32.662 20.583 223.338 20.583 231.566 22.077C241.838 23.942 248.991 29.373 253.196 38.5L255.5 43.5L255.5 127.5C255.5 207.497 255.41 211.734 253.609 216.404C251.355 222.247 246.011 228.444 241.036 230.981C239.057 231.991 234.781 233.309 231.535 233.909C222.748 235.533 30.429 235.26 23 233.613M215.459 211.217C214.336 210.273 194.366 192.175 171.082 171C147.798 149.825 128.411 132.5 128 132.5C127.589 132.5 108.202 149.825 84.918 171C61.634 192.175 41.664 210.273 40.541 211.217C38.609 212.841 43.297 212.933 128 212.933C212.703 212.933 217.391 212.841 215.459 211.217M78.25 148.125L128 102.948L177.75 148.125C205.113 172.972 229.198 194.911 231.274 196.878L235.049 200.453L234.774 123.638L234.5 46.823L232.139 44.911C229.85 43.058 226.714 43 128 43C29.286 43 26.15 43.058 23.861 44.911L21.5 46.823L21.226 123.638L20.951 200.453L24.726 196.878C26.802 194.911 50.888 172.972 78.25 148.125" />
    <glyph glyph-name="user"
      unicode="&#xEA21;"
      horiz-adv-x="256" d="M114.5 254.501C105.195 252.422 100.365 250.396 92.932 245.455C79.162 236.3 68.744 220.999 65.389 205C63.143 194.285 63.931 171.013 66.845 162C73.068 142.755 89.142 126.646 108.422 120.333C115.258 118.095 118.268 117.688 128 117.688C137.732 117.688 140.742 118.095 147.578 120.333C166.858 126.646 182.932 142.755 189.155 162C190.755 166.949 191.367 171.961 191.72 183C192.287 200.75 190.816 208.893 184.863 220.966C172.331 246.383 142.277 260.706 114.5 254.501M134.855 233.954C150.373 231.436 163.966 219.606 168.699 204.5C170.678 198.183 171.361 184.293 170.1 176C167.85 161.197 158.972 149.153 145.759 142.978C134.821 137.867 119.842 137.973 109.192 143.237C102.041 146.772 93.464 155.312 90.005 162.341C83.708 175.14 83.551 198.436 89.68 210.638C95.419 222.062 108.361 231.911 120.233 233.889C127.555 235.108 127.734 235.109 134.855 233.954M107 94.91C83.424 92.888 50.03 85.566 38.996 80C31.011 75.972 21.686 66.71 17.334 58.484C11.944 48.295 11 42.575 11 20.106L11 0L128 0L245 0L245 20.106C245 42.536 244.049 48.327 238.718 58.36C234.326 66.625 224.893 76.028 217.004 80.004C205.485 85.809 173.014 92.796 147.5 94.961C133.897 96.115 120.859 96.099 107 94.91M154 72.915C173.874 70.778 200.695 64.484 208.44 60.141C214.464 56.762 220.156 49.671 222.385 42.77C223.346 39.796 224 34.372 224 29.385L224 21L128 21L32 21L32 29.385C32 39.549 33.934 46.07 38.865 52.536C43.823 59.037 50.386 62.426 65.039 66.05C84.76 70.927 94.845 72.517 118 74.397C124.201 74.9 142.563 74.144 154 72.915" />
    <glyph glyph-name="phone"
      unicode="&#xEA22;"
      horiz-adv-x="256" d="M20.582 228.082L-0.318 207.164L0.335 193.832C5.086 96.859 75.481 17.947 171 2.522C176.225 1.679 186.499 0.694 193.832 0.335L207.164 -0.318L228.082 20.582C239.587 32.077 249 41.934 249 42.486C249 43.038 233.816 58.678 215.258 77.242L181.517 110.994L165.5 95L149.484 79.006L114.239 114.261L78.993 149.517L95 165.5L111.006 181.483L77.259 215.241C58.697 233.809 43.055 249 42.497 249C41.939 249 32.077 239.587 20.582 228.082M62.261 200.239L81.002 181.479L64.997 165.497L48.992 149.515L99.239 99.261L149.485 49.007L165.503 65.003L181.521 80.999L200.503 61.997L219.485 42.996L208.492 32.035L197.5 21.075L187 22.053C157.748 24.776 131.938 33.445 107.039 48.909C84.252 63.061 62.219 84.902 49.087 106.358C33.834 131.278 24.305 159.883 22.096 187.381L21.282 197.5L31.874 208.25C37.7 214.163 42.703 219 42.993 219C43.283 219 51.953 210.558 62.261 200.239" />
    <glyph glyph-name="mobile"
      unicode="&#xEA23;"
      horiz-adv-x="256" d="M54.296 254.566C44.397 251.44 35.124 241.376 33.015 231.469C32.3 228.112 32.045 193.732 32.228 125.478L32.5 24.457L35.834 17.685C38.231 12.816 40.573 9.803 44.17 6.96C53.29 -0.249 51.205 -0.086 130.096 0.224C199.729 0.497 200.551 0.524 205.149 2.649C211.384 5.532 217.627 11.973 220.852 18.852L223.5 24.5L223.5 128.5L223.5 232.5L221 237.493C217.884 243.715 211.467 250.099 205.25 253.161L200.5 255.5L129.5 255.696C72.845 255.853 57.651 255.625 54.296 254.566M199.231 231.231L202.5 227.962L202.5 128L202.5 28.038L199.231 24.769L195.962 21.5L129.426 21.229C70.173 20.988 62.522 21.133 59.522 22.556C52.594 25.844 52.942 19.942 53.236 129.351L53.5 227.839L56 230.529C57.375 232.008 59.4 233.596 60.5 234.057C61.6 234.518 92.529 234.806 129.231 234.697L195.962 234.5L199.231 231.231M123 62.727C119.573 61.023 116.658 54.833 117.493 51.031C118.443 46.706 123.291 43 128 43C130.655 43 132.777 43.783 134.85 45.527C144.279 53.461 134.095 68.244 123 62.727" />
    <glyph glyph-name="phone-fill"
      unicode="&#xEA24;"
      horiz-adv-x="256" d="M165.568 101.6426666666667L140.672 77.1093333333334L77.1093333333333 140.672L101.6426666666667 165.568A10.666666666666666 10.666666666666666 0 0 1 103.84 177.248L78.2933333333333 236.8746666666667A10.666666666666666 10.666666666666666 0 0 1 65.76 242.976L18.8266666666667 230.5813333333334A10.666666666666666 10.666666666666666 0 0 1 10.8373333333333 219.9146666666667A225.55733333333333 225.55733333333333 0 0 1 74.6666666666667 74.6666666666667A225.55733333333333 225.55733333333333 0 0 1 219.9573333333333 10.848A10.666666666666666 10.666666666666666 0 0 1 230.624 18.8373333333333L243.0186666666667 65.7706666666667A10.666666666666666 10.666666666666666 0 0 1 236.9173333333333 78.304L177.2906666666666 103.8506666666667A10.666666666666666 10.666666666666666 0 0 1 165.568 101.6426666666667z" />
    <glyph glyph-name="dots"
      unicode="&#xEA25;"
      horiz-adv-x="256" d="M106.6666666666667 117.3333333333334A21.333333333333332 21.333333333333332 0 0 1 149.3333333333333 117.3333333333334A21.333333333333332 21.333333333333332 0 0 1 106.6666666666667 117.3333333333334M10.6666666666667 117.3333333333334A21.333333333333332 21.333333333333332 0 0 1 53.3333333333333 117.3333333333334A21.333333333333332 21.333333333333332 0 0 1 10.6666666666667 117.3333333333334M202.6666666666667 117.3333333333334A21.333333333333332 21.333333333333332 0 0 1 245.3333333333333 117.3333333333334A21.333333333333332 21.333333333333332 0 0 1 202.6666666666667 117.3333333333334" />
    <glyph glyph-name="single-content"
      unicode="&#xEA26;"
      horiz-adv-x="256" d="M11 128L11 0L128 0L245 0L245 128L245 256L128 256L11 256L11 128M224 128L224 21L128 21L32 21L32 128L32 235L128 235L224 235L224 128M64 181.5L64 171L128 171L192 171L192 181.5L192 192L128 192L64 192L64 181.5M64 128L64 117L128 117L192 117L192 128L192 139L128 139L64 139L64 128M64 74.5L64 64L96 64L128 64L128 74.5L128 85L96 85L64 85L64 74.5" />
    <glyph glyph-name="notes"
      unicode="&#xEA27;"
      horiz-adv-x="256" d="M118.218 254.529C112.022 252.595 103.966 246.057 100.5 240.151L97.5 235.04L80.75 235.02L64 235L64 203L64 171L128 171L192 171L192 203L192 235L175.234 235L158.467 235L155.225 240.422C147.74 252.934 132.147 258.879 118.218 254.529M135.481 230.977C138.159 228.302 138.499 227.241 138.84 220.5L139.219 213L155.109 213L171 213L171 202.5L171 192L128 192L85 192L85 202.5L85 213L100.891 213L116.781 213L117.157 220.437C117.472 226.671 117.934 228.305 120.016 230.546C124.946 235.851 130.447 236.004 135.481 230.977M11 112L11 0L128 0L245 0L245 112L245 224L224 224L203 224L203 213.5L203 203L213.5 203L224 203L224 112L224 21L128 21L32 21L32 112L32 203L42.5 203L53 203L53 213.5L53 224L32 224L11 224L11 112M64 138.5L64 128L128 128L192 128L192 138.5L192 149L128 149L64 149L64 138.5M64 96L64 85L128 85L192 85L192 96L192 107L128 107L64 107L64 96M64 53.5L64 43L96 43L128 43L128 53.5L128 64L96 64L64 64L64 53.5" />
    <glyph glyph-name="pencil"
      unicode="&#xEA28;"
      horiz-adv-x="256" d="M178 242.889C172.953 240.939 166.299 234.57 97.277 165.632L22.053 90.5L15.527 51.296C11.937 29.735 9 11.24 9 10.198C9 8.419 11.509 8.727 49.75 15.194L90.5 22.085L165.63 97.293C237.842 169.578 240.847 172.733 242.978 178.5C245.867 186.317 245.468 197.261 242.047 204C238.89 210.221 211.261 237.996 204.653 241.592C197.587 245.438 186.048 246 178 242.889M209.163 209.338C227.772 190.764 227.925 189.84 214.653 176.218L206.583 167.936L187.299 187.201L168.015 206.465L174.758 213.343C183.771 222.537 186.508 224.227 191.414 223.626C194.869 223.203 196.948 221.529 209.163 209.338M135.716 97.218L80.423 41.926L57.712 38.122C35.948 34.477 35 34.399 35 36.243C35 37.301 36.592 47.692 38.538 59.334L42.076 80.5L97.282 135.747L152.487 190.994L171.748 171.752L191.009 152.511L135.716 97.218" />
    <glyph glyph-name="image"
      unicode="&#xEA29;"
      horiz-adv-x="256" d="M11 128L11 0L128 0L245 0L245 128L245 256L128 256L11 256L11 128M224 163.917L224 92.835L197.327 123.959C175.814 149.062 170.414 154.833 169.413 153.791C168.73 153.081 156.384 138.325 141.976 121C127.569 103.675 115.442 89.371 115.028 89.213C114.615 89.055 102.629 95.915 88.394 104.457L62.513 119.989L47.256 104.757L32 89.524L32 162.262L32 235L128 235L224 235L224 163.917M101.479 201.947C91.063 200.551 80.717 192.188 76.929 182.102C74.091 174.547 74.493 163.469 77.84 157C83.525 146.01 93.057 139.758 105 139.185C114.672 138.721 121.822 141.256 128.273 147.437C144.688 163.165 140.847 189.279 120.708 198.874C113.793 202.168 108.93 202.945 101.479 201.947M114.077 178.077C118.399 173.755 118.212 168.012 113.6 163.4C111.02 160.82 109.35 160 106.677 160C98.966 160 93.787 168.735 97.458 175.551C100.795 181.748 109.138 183.016 114.077 178.077M197.418 91.021L224 60.042L224 40.521L224 21L128 21L32 21L32 40.261L32 59.522L48.826 76.326L65.651 93.13L92.407 77.056C107.122 68.215 119.48 61.179 119.869 61.419C120.257 61.659 131.808 75.377 145.537 91.904C159.267 108.43 170.576 121.963 170.668 121.976C170.76 121.989 182.798 108.059 197.418 91.021" />
    <glyph glyph-name="pin"
      unicode="&#xEA2A;"
      horiz-adv-x="256" d="M113.5 254.9C76.005 249.548 43.682 220.769 34.994 185C28.788 159.453 32.813 136.772 48.739 107.538C63.647 80.172 90.639 44.558 116.22 18.5L128 6.5L139.78 18.5C165.559 44.76 192.994 81.042 207.461 108.007C219.908 131.208 224.627 148.145 223.618 166C222.81 180.293 219.916 191.564 213.956 203.625C196.003 239.958 155.096 260.837 113.5 254.9M141.373 233.494C170.047 228.494 192.942 207.747 200.09 180.287C202.991 169.143 202.999 154.909 200.11 144.5C195.176 126.726 179.16 99.364 157.291 71.351C145.584 56.354 129.269 37.5 128 37.5C126.701 37.5 110.269 56.52 98.195 72C76.716 99.538 60.675 127.011 55.863 144.5C49.55 167.441 56.561 194.192 73.421 211.491C91.761 230.309 115.52 238.003 141.373 233.494M121.854 201.936C110.094 200.583 96.831 191.549 90.823 180.799C81.636 164.361 84.607 143.488 98.048 130.048C122.614 105.481 164.495 119.339 170.057 153.874C173.303 174.027 160.013 194.766 140 200.778C135.042 202.268 128.415 202.69 121.854 201.936M139.344 177.815C141.458 176.37 144.383 173.458 145.844 171.344C148.141 168.02 148.5 166.486 148.5 160C148.5 153.468 148.147 151.984 145.763 148.5C144.258 146.3 141.366 143.375 139.337 142C136.197 139.873 134.506 139.5 128 139.5C121.494 139.5 119.803 139.873 116.663 142C105.382 149.643 103.643 165.49 113.054 174.9C117.779 179.625 121.79 181.097 129 180.753C134.043 180.512 136.362 179.853 139.344 177.815" />
    <glyph glyph-name="zoom"
      unicode="&#xEA2B;"
      horiz-adv-x="256" d="M89.342 243.587C78.905 241.596 72.681 239.376 61.9 233.797C38.951 221.921 22.118 201.204 14.412 175.353C10.9 163.57 10.011 144.532 12.385 131.922C22.815 76.517 78.114 42.147 132.852 57.048C141.24 59.332 154.201 65.527 161.393 70.69L166.287 74.203L200.409 40.091L234.53 5.98L241.765 13.264C245.744 17.27 249 20.984 249 21.518C249 22.052 233.879 37.615 215.399 56.101L181.797 89.713L185.366 94.68C200.173 115.291 205.989 145.385 200.116 171C192.258 205.275 165.485 232.659 130.5 242.206C121.215 244.739 99.249 245.476 89.342 243.587M119.981 222.933C148.146 218.364 173.616 193.974 179.517 165.919C181.399 156.974 181.393 141.549 179.505 132.5C178.701 128.65 175.936 121.225 173.36 116C169.358 107.882 167.282 105.112 159.088 96.957C151.683 89.587 147.678 86.482 141.5 83.321C128.307 76.571 123.631 75.534 106.5 75.553C92.895 75.569 90.756 75.821 83.5 78.26C72.056 82.107 63.708 87.343 54.421 96.5C38.156 112.538 30.816 131.838 32.364 154.5C33.141 165.865 34.908 172.425 39.906 182.5C52.329 207.543 77.851 223.655 105.5 223.911C109.9 223.952 116.416 223.512 119.981 222.933" />
    <glyph glyph-name="gear"
      unicode="&#xEA2C;"
      horiz-adv-x="256" d="M120.734 254.97C106.594 251.419 97.152 240.049 96.215 225.443L95.748 218.176L91.393 216.512L87.038 214.849L82.269 218.87C74.955 225.037 68.881 227.346 60 227.334C50.204 227.321 43.799 224.596 37.225 217.645C31.161 211.232 28.5 204.632 28.5 196C28.5 187.792 30.907 181.42 36.688 174.323L41.12 168.881L39.477 164.579L37.834 160.276L30.876 159.693C18.312 158.64 8.084 151.897 2.812 141.193C0.946 137.404 0.5 134.862 0.5 128C0.5 117.879 2.692 112.466 9.579 105.579C15.674 99.484 21.728 96.781 30.557 96.215L37.824 95.748L39.501 91.358L41.178 86.967L38.056 83.41C24.738 68.243 24.857 49.992 38.355 37.225C44.768 31.161 51.368 28.5 60 28.5C68.208 28.5 74.58 30.907 81.677 36.688L87.119 41.12L91.56 39.424L96 37.728L96 32.523C96 6.353 125.378 -9.061 146.436 6.061C154.89 12.132 159.967 22.079 159.989 32.614L160 37.728L164.44 39.424L168.881 41.12L174.323 36.688C181.623 30.741 187.76 28.488 196.5 28.547C205.697 28.608 212.31 31.52 218.775 38.355C224.839 44.768 227.5 51.368 227.5 60C227.5 68.208 225.093 74.58 219.312 81.677L214.88 87.119L216.576 91.56L218.272 96L223.386 96.011C249.703 96.067 265.08 125.352 249.894 146.497C244.218 154.402 235.939 158.786 224.949 159.707L218.166 160.276L216.523 164.579L214.88 168.881L219.312 174.323C225.093 181.42 227.5 187.792 227.5 196C227.5 204.632 224.839 211.232 218.775 217.645C212.201 224.596 205.796 227.321 196 227.334C187.119 227.346 181.045 225.037 173.731 218.87L168.962 214.849L164.481 216.56L160 218.272L159.989 223.386C159.961 236.84 152.278 248.257 139.744 253.47C134.969 255.456 125.609 256.195 120.734 254.97M133.547 232.877C137.606 230.899 138.438 228.065 138.824 214.899L139.193 202.299L147.847 199.662C152.606 198.211 160.1 195.064 164.5 192.668L172.5 188.311L181.705 197.156C190.575 205.678 191.079 206 195.532 206C199.307 206 200.689 205.464 203.077 203.077C205.464 200.689 206 199.307 206 195.532C206 191.079 205.678 190.575 197.156 181.705L188.311 172.5L192.668 164.5C195.064 160.1 198.211 152.606 199.662 147.847L202.299 139.193L214.899 138.824C228.212 138.434 230.776 137.656 233.106 133.302C234.705 130.314 234.669 125.618 233.022 122.541C230.73 118.259 226.357 117 213.777 117L202.357 117L199.691 108.25C198.224 103.437 195.064 95.9 192.668 91.5L188.311 83.5L197.156 74.295C205.588 65.518 206 64.882 206 60.622C206 52.326 198.657 47.171 191.608 50.516C189.859 51.346 184.891 55.583 180.568 59.932L172.706 67.84L169.103 65.565C163.9 62.281 152.485 57.421 145.25 55.41L139 53.672L139 43.461C139 30.752 138.397 27.67 135.305 24.578C131.985 21.258 127.874 20.491 123.788 22.431C118.338 25.016 117.585 27.139 117.177 41.063L116.809 53.625L107.37 56.461C102.178 58.021 94.609 61.19 90.548 63.504L83.166 67.711L75.368 59.868C71.08 55.554 66.141 51.346 64.392 50.516C57.343 47.171 50 52.326 50 60.622C50 64.882 50.412 65.518 58.844 74.295L67.689 83.5L63.332 91.5C60.936 95.9 57.776 103.437 56.309 108.25L53.643 117L42.223 117C29.643 117 25.27 118.259 22.978 122.541C21.331 125.618 21.295 130.314 22.894 133.302C25.224 137.656 27.788 138.434 41.101 138.824L53.701 139.193L56.338 147.847C57.789 152.606 60.936 160.1 63.332 164.5L67.689 172.5L58.844 181.705C50.322 190.575 50 191.079 50 195.532C50 199.307 50.536 200.689 52.923 203.077C55.311 205.464 56.693 206 60.468 206C64.921 206 65.425 205.678 74.295 197.156L83.5 188.311L91.5 192.668C95.9 195.064 103.438 198.224 108.25 199.691L117 202.357L117 212.553C117 225.251 117.604 228.331 120.699 231.426C124.231 234.958 128.327 235.421 133.547 232.877M121.854 169.936C110.094 168.583 96.831 159.549 90.823 148.799C81.636 132.361 84.607 111.488 98.048 98.048C122.614 73.481 164.495 87.339 170.057 121.874C173.303 142.027 160.013 162.766 140 168.778C135.042 170.268 128.415 170.69 121.854 169.936M139.344 145.815C141.458 144.37 144.383 141.458 145.844 139.344C148.141 136.02 148.5 134.486 148.5 128C148.5 121.468 148.147 119.984 145.763 116.5C144.258 114.3 141.366 111.375 139.337 110C136.197 107.873 134.506 107.5 128 107.5C121.494 107.5 119.803 107.873 116.663 110C105.382 117.643 103.643 133.49 113.054 142.9C117.779 147.625 121.79 149.097 129 148.753C134.043 148.512 136.362 147.853 139.344 145.815" />
    <glyph glyph-name="star-fill"
      unicode="&#xEA2D;"
      horiz-adv-x="256" d="M246.8693333333333 164.896L171.3386666666667 175.872L137.6 244.2666666666667A11.104 11.104 0 0 1 118.464 244.2666666666667L84.6613333333333 175.872L9.1306666666667 164.896A10.666666666666666 10.666666666666666 0 0 1 3.2 146.7093333333334L57.8666666666667 93.44L44.9706666666667 18.208A10.666666666666666 10.666666666666666 0 0 1 60.448 6.9653333333333L128 42.4746666666667L195.552 6.9653333333333A10.666666666666666 10.666666666666666 0 0 1 211.0293333333334 18.208L198.1333333333333 93.44L252.8 146.7093333333334A10.666666666666666 10.666666666666666 0 0 1 246.8906666666667 164.896z" />
    <glyph glyph-name="star"
      unicode="&#xEA2E;"
      horiz-adv-x="256" d="M107.595 212.19L87.71 172.38L47.105 166.561C24.772 163.36 5.037 160.516 3.25 160.24C1.462 159.964 0 159.187 0 158.514C0 157.841 2.587 154.873 5.75 151.919C8.912 148.965 23.134 135.21 37.353 121.352L63.206 96.156L55.617 51.897C51.444 27.554 48.135 7.549 48.265 7.442C48.394 7.334 66.388 16.678 88.25 28.206L128 49.165L167.75 28.206C189.613 16.678 207.607 7.335 207.737 7.443C207.867 7.552 204.59 27.364 200.454 51.471C196.318 75.578 193.061 95.682 193.217 96.148C193.373 96.613 207.45 110.526 224.5 127.064C241.55 143.603 255.634 157.717 255.797 158.429C255.977 159.216 254.803 159.922 252.797 160.232C250.984 160.512 231.228 163.36 208.895 166.561L168.29 172.38L148.405 212.19C137.468 234.086 128.286 252 128 252C127.714 252 118.532 234.086 107.595 212.19M141.212 178.59C152.652 155.688 154.181 153.124 156.703 152.62C158.241 152.312 170.975 150.434 185 148.447C199.024 146.46 210.674 144.659 210.889 144.445C211.103 144.23 201.953 134.93 190.555 123.778L169.832 103.5L174.788 75C177.513 59.325 179.689 46.426 179.622 46.335C179.555 46.244 167.912 52.252 153.75 59.686L128 73.203L102.25 59.686C88.088 52.252 76.445 46.244 76.378 46.335C76.311 46.426 78.488 59.325 81.215 75L86.173 103.5L65.432 123.762C54.024 134.906 44.873 144.206 45.096 144.429C45.319 144.652 56.976 146.46 71 148.447C85.025 150.434 97.759 152.312 99.297 152.62C101.819 153.124 103.348 155.688 114.788 178.59C121.77 192.565 127.715 204 128 204C128.285 204 134.23 192.565 141.212 178.59" />
    <glyph glyph-name="trash"
      unicode="&#xEA2F;"
      horiz-adv-x="256" d="M88.637 254.535C86.513 253.778 83.435 251.885 81.798 250.329C76.272 245.077 75.552 242.657 75.005 227.5L74.5 213.5L37.25 213.238L0 212.976L0 202.488L0 192L128 192L256 192L256 202.488L256 212.976L218.75 213.238L181.5 213.5L180.995 227.5C180.434 243.024 179.66 245.457 173.578 250.797C171.64 252.499 168.355 254.363 166.277 254.94C160.256 256.612 93.486 256.264 88.637 254.535M160 224L160 213L128 213L96 213L96 224L96 235L128 235L160 235L160 224M34.777 170.273L31.054 169.883L31.55 165.691C31.823 163.386 34.053 132.475 36.505 97C38.957 61.525 41.229 30.475 41.554 28C42.908 17.685 49.596 8.359 59.313 3.235L64.5 0.5L128 0.5L191.5 0.5L196.558 3.169C203.271 6.712 208.668 12.297 211.754 18.893C214.188 24.094 214.463 26.864 219.508 96.893C222.384 136.827 224.625 169.635 224.486 169.799C224.348 169.964 219.553 170.364 213.83 170.688L203.426 171.277L198.364 100.193C192.815 22.287 193.271 25.265 186.454 22.416C181.437 20.32 74.563 20.32 69.546 22.416C62.729 25.265 63.184 22.3 57.646 100.054L52.593 171L45.547 170.832C41.671 170.739 36.825 170.488 34.777 170.273" />
    <glyph glyph-name="padlock"
      unicode="&#xEA30;"
      horiz-adv-x="256" d="M113.674 254.455C102.207 252.175 92.727 246.798 82.964 237.036C76.463 230.534 73.538 226.683 70.691 220.877C64.917 209.104 64 202.121 64 169.932L64 142.041L60.001 136.77C54.526 129.556 49.738 120.127 46.406 110C43.845 102.215 43.605 100.196 43.555 86C43.49 67.714 45.262 59.879 52.573 46.11C64.067 24.466 82.623 9.58 106.5 2.847C117.944 -0.38 138.056 -0.38 149.5 2.847C179.323 11.257 201.729 33.335 210.24 62.701C212.17 69.36 212.492 72.765 212.445 86C212.395 100.196 212.155 102.215 209.594 110C206.262 120.127 201.474 129.556 195.999 136.77L192 142.041L192 169.932C192 202.121 191.083 209.104 185.309 220.877C180.079 231.542 167.542 244.079 156.877 249.309C144.085 255.583 128.615 257.425 113.674 254.455M134.855 233.954C152.831 231.037 167.372 216.327 169.956 198.447C171.504 187.735 171.32 160 169.7 160C168.985 160 167.972 160.374 167.45 160.831C162.702 164.987 139.373 171 128 171C119.014 171 103.485 167.598 94.161 163.587C89.575 161.614 85.638 160 85.411 160C84.561 160 85.081 191.786 86.04 198.5C88.878 218.348 105.744 233.326 127 234.876C127.825 234.936 131.36 234.521 134.855 233.954M143 147.443C163.642 142.592 182.014 125.67 188.771 105.284C192.352 94.478 192.584 76.921 189.282 66.5C178.261 31.715 140.632 12.919 106.227 25.012C88.588 31.211 72.539 47.949 66.926 66C62.807 79.243 63.41 96.011 68.467 108.916C75.574 127.05 93.63 142.821 112.512 147.386C120.464 149.308 134.947 149.335 143 147.443M120.734 126.97C98.611 121.414 88.909 95.966 101.983 77.785C104.192 74.714 108.113 71.034 111.344 69L116.904 65.5L116.952 54.25L117 43L128 43L139 43L139.048 54.25L139.096 65.5L144.638 69C167.029 83.14 164.243 115.28 139.744 125.47C134.969 127.456 125.609 128.195 120.734 126.97M133.64 104.827C139 102.204 139.956 93.228 135.364 88.636C131.663 84.935 124.393 84.88 120.748 88.524C116.418 92.855 116.393 99.12 120.689 103.416C124.256 106.983 128.328 107.427 133.64 104.827" />
    <glyph glyph-name="users-wm"
      unicode="&#xEA31;"
      horiz-adv-x="256" d="M160.863 233.624C155.306 232.632 141.884 226.941 136.117 223.131C135.01 222.4 135.786 220.396 140.012 213.074C142.914 208.045 145.562 204.062 145.895 204.223C146.228 204.384 149.875 206.303 154 208.487C161.12 212.256 161.957 212.458 170.5 212.478C177.913 212.496 180.328 212.092 184.193 210.188C190.724 206.971 196.721 200.828 199.843 194.155C202.379 188.737 202.49 187.787 202.495 171.5C202.499 157.754 202.159 153.522 200.716 149.391C198.487 143.006 193.192 136.737 186.304 132.332L181 128.939L181.006 120.719C181.012 111.316 182.066 106.682 185.284 101.906C188.704 96.831 192.169 94.945 214.478 86.009L235 77.789L235 60.394L235 43L213.5 43L192 43L192 32L192 21L224 21L256 21L255.978 51.75C255.958 79.561 255.778 82.891 254.097 86.594C250.945 93.533 246.098 96.562 223.984 105.41C209.476 111.214 203.41 114.108 203.173 115.338C202.974 116.375 205.187 119.586 208.67 123.313C220.718 136.208 223.972 146.245 223.968 170.5C223.964 196.142 220.587 206.381 207.941 219.093C200.358 226.716 191.976 231.28 181.5 233.489C173.326 235.213 169.893 235.235 160.863 233.624M73.411 222.516C61.115 219.841 49.773 212.13 41.398 200.755C36.045 193.483 33.293 185.197 32.013 172.5C31.19 164.332 30.358 161.182 27.475 155.305C23.883 147.984 18.553 140.48 12.179 133.772L8.637 130.044L11.009 124.981C15.15 116.141 25.831 107.975 39.833 102.946C43.902 101.485 45.689 100.406 44.833 99.928C44.1 99.519 36.525 96.413 28 93.026C8.785 85.39 5.978 83.603 2.623 76.871C0 71.608 0 71.606 0 46.304L0 21L85.5 21L171 21L171 45.322C171 81.673 170.922 81.802 142.141 93.336L123.888 100.65L128.194 101.931C134.3 103.748 143.444 108.421 149.29 112.713C153.888 116.088 162 126.768 162 129.447C162 130.072 159.966 132.58 157.481 135.019C152.116 140.284 144.855 150.846 141.934 157.635C140.782 160.312 139.427 166.547 138.921 171.5C137.689 183.564 134.865 192.476 129.936 199.858C117.453 218.552 95.547 227.333 73.411 222.516M98.5 199.551C104.581 196.827 111.117 190.455 114.055 184.386C115.314 181.786 116.607 176.42 117.115 171.691C118.812 155.902 121.788 147.646 130.418 134.783L134.924 128.066L128.712 125.143C122.251 122.103 113.076 119.576 104.5 118.474C95.567 117.327 95.999 117.825 96.006 108.683C96.018 90.236 98.496 87.692 127.769 76.074L149 67.648L149 55.324L149 43L84.969 43L20.938 43L21.219 55.199L21.5 67.398L42 75.589C53.275 80.094 63.936 84.716 65.69 85.86C67.445 87.004 70.133 90.077 71.664 92.689C74.076 96.806 74.499 98.734 74.838 107.171C75.222 116.745 75.19 116.912 72.864 117.362C71.564 117.614 65.677 118.711 59.781 119.801C49.381 121.723 35.302 127.088 36.348 128.731C36.617 129.154 38.905 132.638 41.432 136.474C47.998 146.439 51.949 157.367 53.161 168.92C54.756 184.108 59.722 192.809 69.982 198.394C78.845 203.217 89.361 203.644 98.5 199.551" />
    <glyph glyph-name="info"
      unicode="&#xEA32;"
      horiz-adv-x="256" d="M108.5 254.445C52.322 244.952 9.966 202.042 1.455 146C-4.588 106.211 9.673 64.918 39.355 36.262C89.265 -11.923 166.701 -11.955 216.569 36.188C251.144 69.568 264.019 118.019 250.578 164.176C240.645 198.288 215.397 227.737 182.581 243.487C160.111 254.271 132.044 258.423 108.5 254.445M139.047 233.947C155.39 232.27 173.266 225.796 187.91 216.251C195.179 211.513 211.571 195.089 216.36 187.746C228.462 169.189 234.294 149.534 234.237 127.5C234.16 97.643 222.697 71.184 200.88 50.5C159.958 11.703 96.042 11.703 55.12 50.5C33.239 71.244 21.825 97.587 21.759 127.5C21.709 149.564 27.489 169.131 39.487 187.515C44.409 195.057 60.729 211.453 68.09 216.251C85.279 227.455 105.094 233.809 126.144 234.867C127.598 234.94 133.404 234.526 139.047 233.947M120.4 188.6C113.381 181.581 117.821 171.074 127.827 171.022C133.864 170.991 138 175.058 138 181.023C138 186.753 132.981 192 127.5 192C124.625 192 123.041 191.241 120.4 188.6M117 106.5L117 64L127.5 64L138 64L138 106.5L138 149L127.5 149L117 149L117 106.5" />
    <glyph glyph-name="small-check"
      unicode="&#xEA33;"
      horiz-adv-x="256" d="M149.252 142.755L107.007 100.51L85.503 121.997L63.999 143.483L56.257 135.741L48.515 127.999L77.001 99.499C92.668 83.825 105.938 71 106.49 71C107.041 71 129.877 93.381 157.236 120.736L206.98 170.473L199.765 177.736C195.797 181.731 192.313 185 192.024 185C191.734 185 172.487 165.99 149.252 142.755" />
    <glyph glyph-name="check"
      unicode="&#xEA34;"
      horiz-adv-x="256" d="M165.248 137.749L96.004 68.506L58.737 105.763L21.47 143.02L13.998 135.498L6.527 127.976L51.264 83.239L96.001 38.502L172.746 115.247L249.491 191.993L241.991 199.493L234.491 206.993L165.248 137.749" />
    <glyph glyph-name="twitter"
      unicode="&#xEA36;"
      horiz-adv-x="256" d="M256 206.9333333333333C246.4 202.6666666666667 236.8 199.4666666666667 226.1333333333334 198.4C236.8 204.8 245.3333333333333 215.4666666666667 249.6 227.2C238.9333333333334 220.8 228.2666666666667 216.5333333333333 216.5333333333333 214.4C206.9333333333333 225.0666666666667 193.0666666666667 231.4666666666667 178.1333333333333 231.4666666666667C149.3333333333333 231.4666666666667 125.8666666666667 208 125.8666666666667 179.2C125.8666666666667 174.9333333333333 125.8666666666667 170.6666666666667 126.9333333333333 167.4666666666667C82.1333333333333 169.6 43.7333333333333 190.9333333333333 18.1333333333333 222.9333333333333C12.8 214.4 10.6666666666667 205.8666666666667 10.6666666666667 196.2666666666667C10.6666666666667 178.1333333333333 20.2666666666667 162.1333333333333 34.1333333333333 152.5333333333334C25.6 152.5333333333334 17.0666666666667 154.6666666666667 10.6666666666667 158.9333333333333C10.6666666666667 158.9333333333333 10.6666666666667 158.9333333333333 10.6666666666667 157.8666666666667C10.6666666666667 132.2666666666667 28.8 110.9333333333333 52.2666666666667 106.6666666666667C48 105.6 43.7333333333333 104.5333333333334 38.4 104.5333333333334C35.2 104.5333333333334 32 104.5333333333334 28.8 105.6C35.2 84.2666666666667 54.4 69.3333333333334 77.8666666666667 69.3333333333334C59.7333333333333 55.4666666666667 37.3333333333333 46.9333333333334 12.8 46.9333333333334C8.5333333333333 46.9333333333334 4.2666666666667 46.9333333333334 0 48C23.4666666666667 33.0666666666667 51.2 24.5333333333334 80 24.5333333333334C177.0666666666667 24.5333333333334 229.3333333333333 104.5333333333334 229.3333333333333 173.8666666666667C229.3333333333333 176 229.3333333333333 178.1333333333333 229.3333333333333 180.2666666666667C240 187.7333333333334 248.5333333333334 197.3333333333334 256 206.9333333333333z" />
    <glyph glyph-name="facebook"
      unicode="&#xEA37;"
      horiz-adv-x="256" d="M96.33632 10.6666666666667L96 117.3333333333334H53.3333333333333V160H96V186.6666666666667C96 226.2549333333334 120.5154133333333 245.3333333333334 155.8308266666667 245.3333333333334C172.7473066666667 245.3333333333334 187.28608 244.07392 191.5230933333334 243.5109333333334V202.13888L167.0299733333334 202.1277866666667C147.8234666666667 202.1277866666667 144.10464 193.0011733333333 144.10464 179.6084266666667V160H200L178.6666666666667 117.3333333333334H144.10464V10.6666666666667H96.33632z" />
    <glyph glyph-name="bag-vet"
      unicode="&#xEA38;"
      horiz-adv-x="256" d="M75 224L75 203L37.5 203L0 203L0 128L0 53L5.5 53L11 53L11 32L11 11L128 11L245 11L245 32L245 53L250.5 53L256 53L256 128L256 203L218.5 203L181 203L181 224L181 245L128 245L75 245L75 224M160 213.5L160 203L128 203L96 203L96 213.5L96 224L128 224L160 224L160 213.5M235 128L235 75L128 75L21 75L21 128L21 181L128 181L235 181L235 128M117 149.5L117 139L106.5 139L96 139L96 128L96 117L106.5 117L117 117L117 106.5L117 96L128 96L139 96L139 106.5L139 117L149.5 117L160 117L160 128L160 139L149.5 139L139 139L139 149.5L139 160L128 160L117 160L117 149.5M224 42.5L224 32L128 32L32 32L32 42.5L32 53L128 53L224 53L224 42.5" />
    <glyph glyph-name="clock"
      unicode="&#xEA39;"
      horiz-adv-x="256" d="M108.5 254.445C52.322 244.952 9.966 202.042 1.455 146C-4.588 106.211 9.673 64.918 39.355 36.262C89.265 -11.923 166.701 -11.955 216.569 36.188C251.144 69.568 264.019 118.019 250.578 164.176C240.645 198.288 215.397 227.737 182.581 243.487C160.111 254.271 132.044 258.423 108.5 254.445M139.047 233.947C155.39 232.27 173.266 225.796 187.91 216.251C195.179 211.513 211.571 195.089 216.36 187.746C228.462 169.189 234.294 149.534 234.237 127.5C234.16 97.643 222.697 71.184 200.88 50.5C159.958 11.703 96.042 11.703 55.12 50.5C33.239 71.244 21.825 97.587 21.759 127.5C21.709 149.564 27.489 169.131 39.487 187.515C44.409 195.057 60.729 211.453 68.09 216.251C85.279 227.455 105.094 233.809 126.144 234.867C127.598 234.94 133.404 234.526 139.047 233.947M117.471 201.785C117.199 201.077 117.095 181.824 117.239 158.999L117.5 117.5L160 117.5L202.5 117.5L202.5 128L202.5 138.5L170.764 138.764L139.028 139.028L138.764 170.764L138.5 202.5L128.232 202.785C120.576 202.998 117.839 202.743 117.471 201.785" />
    <glyph glyph-name="shopping-cart"
      unicode="&#xEA3A;"
      horiz-adv-x="256" d="M0 234.524L0 224.048L16.708 223.774L33.416 223.5L44.001 144L54.586 64.5L138.272 64.244L221.959 63.989L222.5 66.244C222.798 67.485 228.591 96.287 235.374 130.25L247.706 192L153.353 192C101.459 192 59 192.307 59 192.682C59 193.686 53.098 237.944 52.457 241.75L51.909 245L25.955 245L0 245L0 234.524M220.955 168.75C220.93 167.513 217.217 148.275 212.705 126L204.5 85.5L139.557 85.243C103.839 85.101 74.278 85.326 73.867 85.743C73.455 86.159 70.843 103.825 68.063 125C65.282 146.175 62.741 165.187 62.416 167.25L61.824 171L141.412 171L221 171L220.955 168.75M60 42.011C39.436 38.174 36.772 9.676 56.218 1.553C69.707 -4.082 84.909 6.347 84.978 21.282C85.04 34.847 73.397 44.51 60 42.011M208.79 42.038C202.874 40.906 197.355 36.425 194.375 30.333C192.136 25.757 191.817 24.066 192.303 19.353C193.378 8.942 200.942 1.378 211.353 0.303C216.077 -0.185 217.755 0.135 222.395 2.405C236.285 9.2 238.825 26.823 227.368 36.907C224.559 39.38 221.36 41.19 219.136 41.563C217.136 41.9 214.825 42.303 214 42.461C213.175 42.618 210.831 42.428 208.79 42.038" />
    <glyph glyph-name="basket"
      unicode="&#xEA3B;"
      horiz-adv-x="256" d="M66.565 215.5L46.866 181L23.433 181L0 181L0 170.5L0 160L128 160L256 160L256 170.482L256 180.964L232.402 181.232L208.804 181.5L189.423 215.493C178.763 234.189 169.616 249.628 169.097 249.801C168.157 250.114 152.298 241.291 151.51 240.017C151.283 239.649 158.5 226.389 167.549 210.551C176.597 194.713 184 181.584 184 181.377C184 181.17 158.8 181 128 181C97.2 181 72 181.17 72 181.377C72 181.584 79.403 194.713 88.451 210.551C97.5 226.389 104.717 239.649 104.49 240.017C103.899 240.973 88.224 250 87.155 250C86.665 250 77.399 234.475 66.565 215.5M21.423 137.659C21.125 136.883 21.021 113.58 21.191 85.874L21.5 35.5L24.165 29.814C27.597 22.493 34.8 15.593 41.708 13.008C46.92 11.058 49.415 11 128 11C206.585 11 209.08 11.058 214.292 13.008C221.2 15.593 228.403 22.493 231.835 29.814L234.5 35.5L234.5 87L234.5 138.5L224 138.5L213.5 138.5L213 88.5C212.725 61 212.108 37.696 211.629 36.713C209.308 31.953 210.15 32 128 32C45.85 32 46.692 31.953 44.371 36.713C43.892 37.696 43.275 61 43 88.5L42.5 138.5L32.232 138.785C24.121 139.01 21.85 138.774 21.423 137.659M75 96L75 64L85.5 64L96 64L96 96L96 128L85.5 128L75 128L75 96M117 96L117 64L128 64L139 64L139 96L139 128L128 128L117 128L117 96M160 96L160 64L170.5 64L181 64L181 96L181 128L170.5 128L160 128L160 96" />
    <glyph glyph-name="delivery-fast"
      unicode="&#xEA3C;"
      horiz-adv-x="256" d="M0 234.5L0 224L48 224L96 224L96 138.5L96 53L106.455 53L116.909 53L117.495 49.25C118.434 43.243 120.075 37.79 122.204 33.608C124.721 28.665 132.343 20.462 137.394 17.261C150.633 8.871 169.367 8.871 182.606 17.261C191.746 23.053 199.994 34.951 201.489 44.5C201.833 46.7 202.323 49.512 202.577 50.75L203.038 53L229.519 53L256 53L256 93.768L256 134.536L233.958 145.518C215.606 154.661 211.809 156.919 211.281 159C210.931 160.375 208.335 170.725 205.511 182L200.375 202.5L158.688 202.761L117 203.022L117 224.011L117 245L58.5 245L0 245L0 234.5M0 181.5L0 171L37.5 171L75 171L75 181.5L75 192L37.5 192L0 192L0 181.5M188.575 161.662L193.368 142.324L213.934 131.912L234.5 121.5L234.768 98.25L235.037 75L215.768 75.038L196.5 75.076L193.81 78.968C190.077 84.367 182.088 90.438 175.252 93.069C167.128 96.196 152.872 96.196 144.748 93.069C137.912 90.438 129.923 84.367 126.19 78.968C124.014 75.82 122.879 75.069 120.25 75.038L117 75L117 128L117 181L150.391 181L183.781 181L188.575 161.662M139 149.5L139 128L160 128L181 128L181 138.5L181 149L170.5 149L160 149L160 160L160 171L149.5 171L139 171L139 149.5M21 128L21 116.967L47.75 117.234L74.5 117.5L74.5 128L74.5 138.5L47.75 138.766L21 139.033L21 128M43 74.5L43 64L59 64L75 64L75 74.5L75 85L59 85L43 85L43 74.5M170.456 71.626C181.891 65.479 184.486 49.317 175.653 39.257C169.603 32.367 159.669 30.15 151.491 33.865C132.949 42.288 136.043 70.428 155.905 74.014C160.924 74.921 165.823 74.117 170.456 71.626" />
    <glyph glyph-name="shape-square"
      unicode="&#xEA3D;"
      horiz-adv-x="256" d="M11 213L11 181L21.5 181L32 181L32 128L32 75L21.5 75L11 75L11 43L11 11L43 11L75 11L75 21.5L75 32L128 32L181 32L181 21.5L181 11L213 11L245 11L245 43L245 75L234.5 75L224 75L224 128L224 181L234.5 181L245 181L245 213L245 245L213 245L181 245L181 234.5L181 224L128 224L75 224L75 234.5L75 245L43 245L11 245L11 213M53 213.5L53 203L42.5 203L32 203L32 213.5L32 224L42.5 224L53 224L53 213.5M224 213.5L224 203L213.5 203L203 203L203 213.5L203 224L213.5 224L224 224L224 213.5M181 192L181 181L192 181L203 181L203 128L203 75L192 75L181 75L181 64L181 53L128.034 53L75.068 53L74.784 63.75L74.5 74.5L63.75 74.784L53 75.068L53 128L53 180.932L63.75 181.216L74.5 181.5L74.784 192.25L75.068 203L128.034 203L181 203L181 192M53 42.5L53 32L42.5 32L32 32L32 42.5L32 53L42.5 53L53 53L53 42.5M224 42.5L224 32L213.5 32L203 32L203 42.5L203 53L213.5 53L224 53L224 42.5" />
    <glyph glyph-name="data-download"
      unicode="&#xEA3E;"
      horiz-adv-x="256" d="M117 178.257L117 111.514L90.5 138L64.001 164.485L56.502 156.986L49.003 149.487L88.502 109.998L128 70.509L167.498 109.998L206.997 149.487L199.498 156.986L191.999 164.485L165.5 138L139 111.514L139 178.257L139 245L128 245L117 245L117 178.257M11 53.5L11 11L128 11L245 11L245 53.5L245 96L234.5 96L224 96L224 64L224 32L128 32L32 32L32 64L32 96L21.5 96L11 96L11 53.5" />
    <glyph glyph-name="animaux"
      unicode="&#xEA3F;"
      horiz-adv-x="256" d="M130.7733333333333 72.4266666666667A6.293333333333334 6.293333333333334 0 0 1 143.36 72.4266666666667A6.293333333333334 6.293333333333334 0 0 1 130.7733333333333 72.4266666666667M199.5733333333333 196.0533333333334L174.6133333333334 202.6666666666667A18.773333333333333 18.773333333333333 0 0 1 163.3066666666667 213.3333333333334L160 214.1866666666667A74.66666666666669 74.66666666666669 0 0 1 114.88 222.4C83.52 214.4 79.68 188.0533333333334 77.2266666666667 172.0533333333334L76.5866666666667 168C75.7333333333333 154.4533333333334 75.52 149.3333333333334 75.52 147.2A55.46666666666667 55.46666666666667 0 0 0 58.7733333333333 115.2A5.76 5.76 0 0 1 63.1466666666667 105.3866666666667A5.653333333333333 5.653333333333333 0 0 1 67.2 106.6666666666667A66.13333333333334 66.13333333333334 0 0 1 87.04 147.2V154.1333333333334A44.26666666666667 44.26666666666667 0 0 1 115.84 143.4666666666667A50.773333333333326 50.773333333333326 0 0 1 131.84 146.1333333333334A9.493333333333334 9.493333333333334 0 0 1 137.6 153.92C137.6 160.96 136.8533333333333 180.3733333333333 118.1866666666667 211.0933333333334A65.92 65.92 0 0 0 154.56 203.3066666666667L159.04 201.3866666666667A7.040000000000001 7.040000000000001 0 0 0 163.9466666666666 196.48A5.866666666666667 5.866666666666667 0 0 1 168.32 191.4666666666667L196.3733333333333 184.5333333333334A2.88 2.88 0 0 0 198.1866666666667 182.5066666666667C196.48 154.24 169.8133333333333 147.2 158.5066666666666 145.6A14.186666666666666 14.186666666666666 0 0 1 146.56 133.3333333333334L144.1066666666666 109.76A5.76 5.76 0 0 1 149.8666666666666 103.36A5.76 5.76 0 0 1 155.6266666666666 108.5866666666667L157.9733333333333 132.16A2.6666666666666665 2.6666666666666665 0 0 0 160.1066666666666 134.08C174.2933333333333 136.2133333333334 207.4666666666666 144.7466666666667 209.5999999999999 181.8666666666667A14.080000000000002 14.080000000000002 0 0 1 199.5733333333333 196.0533333333334zM126.5066666666667 156.6933333333333A34.77333333333333 34.77333333333333 0 0 0 88.4266666666667 169.1733333333334V170.4533333333333C90.3466666666667 183.2533333333333 92.6933333333333 198.9333333333333 107.2 207.1466666666667A115.09333333333333 115.09333333333333 0 0 0 126.5066666666667 156.6933333333333zM149.9733333333333 106.6666666666667zM156.2666666666667 81.28C154.88 93.0133333333334 141.12 102.6133333333334 122.6666666666667 104.1066666666667A21.333333333333332 21.333333333333332 0 0 0 116.5866666666667 117.3333333333334A9.493333333333334 9.493333333333334 0 0 1 112.96 124.48A7.68 7.68 0 0 1 106.6666666666667 125.8666666666667C99.6266666666667 124.16 91.0933333333333 116.5866666666667 90.1333333333333 90.3466666666667A63.040000000000006 63.040000000000006 0 0 1 64 42.6666666666667A5.76 5.76 0 0 1 65.3866666666667 38.4A5.76 5.76 0 0 1 73.4933333333333 37.76A5.866666666666667 5.866666666666667 0 0 1 75.52 41.7066666666667A50.98666666666667 50.98666666666667 0 0 0 96.8533333333333 81.7066666666667A9.493333333333334 9.493333333333334 0 0 1 101.12 89.3866666666667A46.93333333333334 46.93333333333334 0 0 0 105.7066666666667 112A33.49333333333333 33.49333333333333 0 0 1 115.0933333333334 95.5733333333334A9.386666666666667 9.386666666666667 0 0 1 120.7466666666667 93.0133333333334C134.9333333333333 91.84 144 85.6533333333334 144.64 80.4266666666667A42.026666666666664 42.026666666666664 0 0 1 158.08 58.56A58.45333333333333 58.45333333333333 0 0 1 153.6 51.4133333333333A9.28 9.28 0 0 0 145.6 47.68A9.386666666666667 9.386666666666667 0 0 1 142.4 47.04L122.6666666666667 39.4666666666667A10.666666666666666 10.666666666666666 0 0 1 116.1600000000001 29.44V28.2666666666667A5.76 5.76 0 0 1 122.1333333333334 22.72A5.76 5.76 0 0 1 127.68 28.8L146.2400000000001 35.84A20.266666666666666 20.266666666666666 0 0 1 163.7333333333334 45.6533333333334A44.26666666666667 44.26666666666667 0 0 0 168.4266666666667 52.6933333333334A9.173333333333334 9.173333333333334 0 0 1 167.8933333333334 65.1733333333334A37.54666666666667 37.54666666666667 0 0 0 156.2666666666667 81.28zM144.8533333333333 187.84A6.293333333333334 6.293333333333334 0 0 1 157.44 187.84A6.293333333333334 6.293333333333334 0 0 1 144.8533333333333 187.84" />
    <glyph glyph-name="clinique"
      unicode="&#xEA40;"
      horiz-adv-x="256" d="M128 256L234.6666666666667 161.184V7.0613333333334H21.3333333333333V161.1946666666667L128 256zM42.6666666666667 151.6053333333333V28.3946666666667H213.3333333333333V151.6053333333333L128 227.456L42.6666666666667 151.6053333333333zM117.3333333333333 170.6666666666667H138.6666666666667V85.3333333333333H117.3333333333333V170.6666666666667zM170.6666666666667 138.6666666666667V117.3333333333334H85.3333333333333V138.6666666666667H170.6666666666667z" />
    <glyph glyph-name="armchair"
      unicode="&#xEA41;"
      horiz-adv-x="256" d="M32 213.5L32 171L16 171L0 171L0 101.5L0 32L16 32L32 32L32 16L32 0L42.5 0L53 0L53 16L53 32L128 32L203 32L203 16L203 0L213.5 0L224 0L224 16L224 32L240 32L256 32L256 101.5L256 171L240 171L224 171L224 213.5L224 256L128 256L32 256L32 213.5M202.764 202.784L203.028 171.068L192.264 170.784L181.5 170.5L181.236 138.75L180.972 107L128 107L75.028 107L74.764 138.75L74.5 170.5L63.75 170.784L53 171.068L53 203.04L53 235.013L127.75 234.756L202.5 234.5L202.764 202.784M53.236 117.25L53.5 85.5L128 85.5L202.5 85.5L202.764 117.25L203.028 149L219.024 149L235.019 149L234.76 101.25L234.5 53.5L127.75 53.245L21 52.991L21 100.995L21 149L36.986 149L52.972 149L53.236 117.25" />
    <glyph glyph-name="group"
      unicode="&#xEA42;"
      horiz-adv-x="256" d="M189.355 254.961C183.547 253.811 176.175 249.864 171.704 245.511C156.652 230.854 156.162 208.432 170.556 193.044C190.794 171.408 227.495 181.879 233.572 211.024C239.109 237.579 216.259 260.2850000000001 189.355 254.961M205.497 232.074C207.145 231.149 209.547 228.841 210.835 226.946C212.767 224.104 213.109 222.525 212.788 217.935C212.131 208.534 206.219 202.996 196.849 203.004C183.185 203.015 176.501 219.968 186.297 229.764C191.54 235.006 198.731 235.871 205.497 232.074M72.782 222.447C55.748 218.318 40.624 204.715 34.946 188.419C32.032 180.055 31.374 167.252 33.413 158.603C38.097 138.738 54.521 122.709 74.5 118.507C83.242 116.668 87.715 116.656 96.174 118.449C106.044 120.541 113.571 124.646 121.764 132.403C137.762 147.551 142.848 169.587 135.072 190.053C125.839 214.352 98.352 228.646 72.782 222.447M91.413 201.932C102.345 199.911 112.032 191.441 115.56 180.818C117.87 173.864 117.226 162.954 114.154 157C108.488 146.019 98.945 139.758 87 139.185C77.316 138.72 69.887 141.344 63.607 147.448C43.284 167.199 55.723 200.908 84.066 202.89C84.928 202.951 88.234 202.519 91.413 201.932M185.536 169.955C172.271 167.872 156.714 160.562 148.516 152.558C140.618 144.848 139 139.561 139 121.462L139 107L197.5 107L256 107L256 120.184C256 139.001 254.576 143.568 246.067 152.037C238.339 159.73 228.594 165.158 217.3 168.061C208.109 170.424 193.918 171.27 185.536 169.955M210.978 147.444C218.041 145.779 228.195 140.566 231.735 136.789C232.964 135.477 234.257 132.963 234.61 131.202L235.25 128L197.625 128C160.969 128 160 128.05 160 129.953C160 134.901 163.473 138.529 173 143.531C182.958 148.761 198.568 150.368 210.978 147.444M70.5 105.936C48.917 104.253 26.629 97.735 16.623 90.181C11.089 86.002 5.694 78.714 2.424 71C0.702 66.935 0.486 63.284 0.197 33.25L-0.122 0L85.439 0L171 0L170.992 28.25C170.984 59.582 170.237 66.622 165.974 75.554C157.604 93.093 135.785 102.933 98.5 105.986C85.34 107.063 84.954 107.063 70.5 105.936M115 82.527C127.674 79.782 137.944 75.988 141.752 72.645C148.304 66.892 148.953 64.07 148.978 41.243L149 20.985L85.25 21.243L21.5 21.5L21.5 42L21.5 62.5L24.305 67.272C27.689 73.029 32.353 76.139 41.999 79.068C57.339 83.728 68.055 84.992 88.5 84.557C100.849 84.294 110.125 83.583 115 82.527" />
    <glyph glyph-name="bell"
      unicode="&#xEA43;"
      horiz-adv-x="256" d="M115.315 255.062C88.306 250.749 65.562 234.363 52.555 209.849C44.694 195.032 43.85 190.484 43.029 158.5C42.108 122.651 42.493 123.751 22.668 100.376C14.508 90.756 11.791 85.076 11.225 76.451C10.823 70.315 11.097 68.743 13.342 64.313C21.063 49.075 47.115 38.454 88 33.876C94.709 33.125 111.373 32.588 128 32.588C144.627 32.588 161.291 33.125 168 33.876C208.885 38.454 234.937 49.075 242.658 64.313C244.903 68.743 245.177 70.315 244.775 76.451C244.198 85.244 241.473 90.831 232.801 101C213.437 123.708 213.899 122.367 212.971 158.5C212.15 190.484 211.306 195.032 203.445 209.849C188.664 237.707 162.404 254.367 131.5 255.491C125.45 255.711 118.167 255.518 115.315 255.062M147.853 231.486C163.758 226.462 177.86 214.129 185.572 198.5C190.923 187.655 191.963 180.67 191.983 155.434C191.992 143.297 192.493 130.697 193.095 127.434C195.322 115.362 201.074 105.024 213.365 91C216.981 86.875 220.938 81.638 222.158 79.362C224.272 75.42 224.298 75.103 222.691 72.651C220.605 69.467 209.003 63.798 199 61.076C161.492 50.866 94.508 50.866 57 61.076C46.997 63.798 35.395 69.467 33.309 72.651C31.702 75.103 31.728 75.42 33.842 79.362C35.062 81.638 39.019 86.875 42.635 91C61.302 112.299 63.99 120.383 64.017 155.315C64.037 180.679 65.071 187.643 70.428 198.5C79.659 217.208 97.037 230.255 117.757 234.033C125.506 235.445 138.912 234.311 147.853 231.486M98 20.946C98 19.595 104.049 11.207 107.12 8.301C120.812 -4.657 145.06 -1.269 154.744 14.956C156.535 17.956 158 20.714 158 21.083C158 21.453 144.5 21.698 128 21.627C111.5 21.557 98 21.251 98 20.946" />
    <glyph glyph-name="comment"
      unicode="&#xEA44;"
      horiz-adv-x="256" d="M104.5 243.416C62.813 236.976 26.485 212.703 10.204 180.411C-11.083 138.19 2.098 89.387 42.975 59.079C50.833 53.252 65.903 45.085 76 41.181C95.623 33.593 124.215 30.199 144.5 33.049C162.681 35.603 157.482 36.845 198.869 20.06C219.422 11.725 236.327 5.038 236.436 5.202C236.545 5.366 234.87 20.682 232.714 39.238L228.794 72.976L232.725 77.738C250.463 99.224 258.337 124.489 255.089 149.5C247.877 205.049 193.664 245.387 126.872 244.903C119.517 244.85 109.45 244.181 104.5 243.416M146.463 222.487C179.512 217.505 206.669 201.97 221.395 179.623C230.592 165.664 234.159 154.352 234.202 139C234.258 119.142 227.5 103.161 212.137 86.816L206.413 80.726L208.664 61.613C209.902 51.101 210.934 41.526 210.957 40.336C210.997 38.336 209.14 38.928 186.367 48.174L161.735 58.177L155.568 56.628C144.861 53.938 128.787 52.899 116.124 54.077C69.902 58.378 32.687 85.642 23.409 122C21.463 129.625 21.216 146.123 22.937 153.455C26.253 167.579 35.636 183.737 46.229 193.562C63.109 209.221 89.439 220.781 114 223.318C122.823 224.23 137.37 223.857 146.463 222.487M75 160L75 149L128 149L181 149L181 160L181 171L128 171L75 171L75 160M75 117.5L75 107L112 107L149 107L149 117.5L149 128L112 128L75 128L75 117.5" />
    <glyph glyph-name="info-fill"
      unicode="&#xEA45;"
      horiz-adv-x="256" d="M128 256C57.4186666666667 256 0 198.5813333333333 0 128S57.4186666666667 0 128 0S256 57.4186666666667 256 128S198.5813333333333 256 128 256zM156.352 60.9706666666667C149.3013333333333 58.1973333333334 124.864 46.528 110.784 58.9333333333334C106.5813333333333 62.624 104.4906666666666 67.3066666666667 104.4906666666666 72.992C104.4906666666666 83.6373333333334 107.9893333333333 92.9173333333334 114.2933333333333 115.2C115.4026666666667 119.4133333333334 116.7573333333333 124.8746666666667 116.7573333333333 129.2053333333334C116.7573333333333 136.6826666666667 113.92 138.6666666666667 106.2293333333333 138.6666666666667C102.4746666666666 138.6666666666667 98.3146666666666 137.3333333333334 94.5493333333333 135.9253333333334L96.6293333333333 144.448C105.024 147.8613333333333 115.5626666666666 152.0213333333334 124.5866666666666 152.0213333333334C138.1226666666666 152.0213333333334 148.0853333333333 145.2693333333334 148.0853333333333 132.4266666666667C148.0853333333333 128.7253333333334 147.4453333333333 122.2400000000001 146.1013333333333 117.76L138.3146666666666 90.2186666666667C136.7039999999999 84.6506666666667 133.7919999999999 72.3733333333333 138.3039999999999 68.736C142.7413333333333 65.1413333333334 153.2479999999999 67.0506666666667 158.4319999999999 69.4933333333333L156.352 60.9706666666667zM143.488 170.6666666666667C134.656 170.6666666666667 127.488 177.8346666666667 127.488 186.6666666666667S134.656 202.6666666666667 143.488 202.6666666666667S159.488 195.4986666666667 159.488 186.6666666666667S152.32 170.6666666666667 143.488 170.6666666666667z" />
    <glyph glyph-name="check-in"
      unicode="&#xEA47;"
      horiz-adv-x="256" d="M192 32L192 74.6666666666667L106.6666666666667 74.6666666666667L106.6666666666667 96L192 96L192 138.6666666666667L256 85.3333333333333L192 32zM245.3333333333333 224H192V245.3333333333334A10.666666666666666 10.666666666666666 0 0 1 170.6666666666667 245.3333333333334V224H85.3333333333333V245.3333333333334A10.666666666666666 10.666666666666666 0 0 1 64 245.3333333333334V224H10.6666666666667A10.666666666666666 10.666666666666666 0 0 1 0 213.3333333333334V21.3333333333333A10.666666666666666 10.666666666666666 0 0 1 10.6666666666667 10.6666666666667H170.6666666666667V32H21.3333333333333V181.3333333333334H234.6666666666667V138.6666666666667H256V213.3333333333334A10.666666666666666 10.666666666666666 0 0 1 245.3333333333333 224z" />
    <glyph glyph-name="check-out"
      unicode="&#xEA48;"
      horiz-adv-x="256" d="M0 85.3333333333333L64 138.6666666666667L64 96L149.3333333333333 96L149.3333333333333 74.6666666666667L64 74.6666666666667L64 32L0 85.3333333333333zM0 213.3333333333334V138.6666666666667H21.3333333333333V181.3333333333334H234.6666666666667V32H85.3333333333333V10.6666666666667H245.3333333333333A10.666666666666666 10.666666666666666 0 0 1 256 21.3333333333333V213.3333333333334A10.666666666666666 10.666666666666666 0 0 1 245.3333333333333 224H192V245.3333333333334A10.666666666666666 10.666666666666666 0 0 1 170.6666666666667 245.3333333333334V224H85.3333333333333V245.3333333333334A10.666666666666666 10.666666666666666 0 0 1 64 245.3333333333334V224H10.6666666666667A10.666666666666666 10.666666666666666 0 0 1 0 213.3333333333334z" />
    <glyph glyph-name="man"
      unicode="&#xEA49;"
      horiz-adv-x="256" d="M160 234.518L160 224.036L184.01 223.768L208.02 223.5L187.213 202.712L166.406 181.923L161.953 185.151C155.225 190.028 141.233 196.67 132.914 198.935C84.691 212.063 35.559 187.572 17.418 141.363C12.273 128.258 10.658 118.011 11.29 102.5C11.697 92.511 12.433 87.424 14.468 80.536C24.101 47.922 48.079 24.072 81 14.359C89.766 11.772 91.774 11.559 107 11.603C122.006 11.645 124.315 11.896 132.5 14.37C171.606 26.189 197.422 56.948 201.9 97.056C204.328 118.801 197.864 143.923 185.365 161.321L181.795 166.289L202.898 187.392L224 208.494L224 184.247L224 160L234.5 160L245 160L245 202.5L245 245L202.5 245L160 245L160 234.518M123.487 179.485C127.33 178.671 134.755 175.892 139.987 173.309C148.089 169.31 150.916 167.196 159.043 159.057C175.431 142.645 181.681 126.633 180.729 103.5C179.876 82.774 173.443 68.265 158.563 53.5C149.325 44.334 140.932 39.081 129.5 35.309C122.453 32.985 119.832 32.662 107.5 32.601C96.84 32.549 91.949 32.967 87 34.353C62.27 41.281 42.741 60.622 34.852 86C31.834 95.709 31.591 115.782 34.367 126C41.251 151.337 62.579 172.395 88 178.955C97.254 181.342 113.568 181.586 123.487 179.485" />
    <glyph glyph-name="woman"
      unicode="&#xEA4A;"
      horiz-adv-x="256" d="M128 256C75.072 256 32 212.928 32 160C32 110.6773333333333 69.408 69.9626666666667 117.3333333333333 64.6293333333333V42.6666666666667H85.3333333333333V21.3333333333333H117.3333333333333V0H138.6666666666667V21.3333333333333H170.6666666666667V42.6666666666667H138.6666666666667V64.6293333333334C186.592 69.9626666666667 224 110.6773333333334 224 160C224 212.928 180.928 256 128 256zM128 85.3333333333333C86.8266666666667 85.3333333333333 53.3333333333333 118.8266666666667 53.3333333333333 160S86.8266666666667 234.6666666666667 128 234.6666666666667S202.6666666666667 201.1733333333333 202.6666666666667 160S169.1733333333333 85.3333333333333 128 85.3333333333333z" />
    <glyph glyph-name="hide"
      unicode="&#xEA4B;"
      horiz-adv-x="256" d="M202.802 218.308L182.111 197.617L173.805 201.749C137.118 220.003 98.407 215.96 63.447 190.225C45.987 177.371 24.354 153.513 12.57 134.116L8.824 127.949L13.372 120.654C20.851 108.653 31.723 95.206 43.992 82.779L55.565 71.058L36.038 51.532L16.511 32.005L24.255 24.261L31.999 16.517L52.848 37.348L73.697 58.179L83.148 53.643C88.346 51.149 96.626 47.869 101.549 46.355C109.867 43.796 111.739 43.601 128 43.601C144.091 43.601 146.19 43.814 154.071 46.245C170.757 51.39 184.995 59.15 199.514 71.012C213.481 82.423 232.327 104.126 242.644 120.679L247.207 128L242.501 135.55C234.652 148.143 221.444 164.327 210.559 174.687L200.249 184.5L219.857 204.242L239.466 223.984L232.008 231.492C227.906 235.621 224.312 239 224.022 239C223.732 239 214.183 229.689 202.802 218.308M141.685 190.55C149.411 188.906 158.102 186.033 162.98 183.51L166.286 181.801L157.893 173.413L149.5 165.025L143.172 167.584C138.057 169.652 135.18 170.14 128.172 170.13C115.569 170.111 106.61 166.515 98.189 158.094C89.303 149.208 85.495 139.753 85.652 126.967C85.722 121.316 86.398 117.819 88.361 112.967L90.976 106.5L81.056 96.574L71.136 86.648L66.61 90.356C60.553 95.319 47.502 109.642 40.054 119.5C36.73 123.9 34.009 127.725 34.009 128C34.009 129.213 46.818 145.285 54.208 153.345C81.386 182.986 113.347 196.579 141.685 190.55M197.403 157.724C206.667 148.311 221.982 129.795 221.989 128C221.993 126.8 209.216 110.752 201.923 102.798C174.614 73.014 142.706 59.461 114.073 65.485C106.857 67.003 91.412 72.525 90.569 73.888C90.312 74.304 93.815 78.339 98.353 82.854L106.605 91.062L111.333 88.971C118.242 85.915 126.85 84.771 134.126 85.943C161.692 90.382 178.093 119.655 167.028 144.669L164.936 149.4L174.699 159.2C180.069 164.59 184.877 169 185.385 169C185.892 169 191.3 163.926 197.403 157.724M120.486 135.977L107.5 122.953L107.198 127.966C106.506 139.466 115.866 148.927 127.986 148.977L133.471 149L120.486 135.977M147.405 119.44C143.587 111.396 136.659 107 127.797 107L122.529 107L135.514 120.023L148.5 133.047L148.802 128.034C148.995 124.828 148.491 121.73 147.405 119.44" />
    <glyph glyph-name="hourglass"
      unicode="&#xEA4C;"
      horiz-adv-x="256" d="M21 245.534L21 235.068L31.75 234.784L42.5 234.5L43.075 213.5C43.83 185.887 43.058 187.868 67.13 151.806L83.02 128L67.13 104.194C43.058 68.132 43.83 70.113 43.075 42.5L42.5 21.5L31.75 21.216L21 20.932L21 10.466L21 0L128 0L235 0L235 10.466L235 20.932L224.25 21.216L213.5 21.5L212.925 42.5C212.17 70.111 212.94 68.136 188.887 104.169L173.013 127.95L189.832 153.306C199.083 167.252 207.946 181.775 209.527 185.581C212.3 192.252 212.423 193.254 212.951 213.5L213.5 234.5L224.25 234.784L235 235.068L235 245.534L235 256L128 256L21 256L21 245.534M192 217.535C192 204.205 191.624 198.962 190.411 195.389C189.537 192.814 179.795 177.179 168.762 160.643C157.729 144.108 148.497 129.794 148.246 128.834C147.96 127.738 155.092 116.066 167.419 97.458C178.215 81.161 188.049 65.953 189.274 63.663C191.313 59.849 191.527 57.886 191.826 40.25L192.153 21L128 21L63.847 21L64.174 40.25C64.471 57.767 64.697 59.867 66.683 63.578C67.883 65.821 77.671 81 88.433 97.309C99.195 113.618 108 127.432 108 128.008C108 128.583 98.79 143.001 87.533 160.047C76.276 177.094 66.376 193.073 65.533 195.555C64.387 198.931 64 204.475 64 217.535L64 235L128 235L192 235L192 217.535M123.725 108.829C121.624 108.063 116.69 101.443 103.393 81.551C86.328 56.02 85.821 55.112 85.279 49.142L84.722 43L128 43L171.278 43L170.721 49.142C170.179 55.112 169.672 56.021 152.62 81.531C137.994 103.411 134.545 107.963 131.889 108.889C128.164 110.187 127.431 110.182 123.725 108.829" />
    <glyph glyph-name="audio"
      unicode="&#xEA4D;"
      horiz-adv-x="256" d="M113.674 254.455C102.207 252.175 92.727 246.798 82.964 237.036C76.463 230.534 73.538 226.683 70.691 220.877C64.919 209.107 63.997 202.105 64.017 170.162C64.037 138.366 64.8 132.877 70.919 120.5C78.356 105.458 92.187 93.589 108.285 88.435C115.192 86.223 118.331 85.805 128 85.805C137.669 85.805 140.808 86.223 147.715 88.435C163.813 93.589 177.644 105.458 185.081 120.5C191.2 132.877 191.963 138.366 191.983 170.162C192.003 202.105 191.081 209.107 185.309 220.877C180.079 231.542 167.542 244.079 156.877 249.309C144.085 255.583 128.615 257.425 113.674 254.455M134.855 233.954C152.831 231.037 167.372 216.327 169.956 198.447C171.276 189.319 171.27 151.288 169.948 143C166.539 121.62 149.504 107 128 107C106.396 107 89.021 121.98 85.943 143.258C84.727 151.669 84.794 189.78 86.04 198.5C88.878 218.348 105.744 233.326 127 234.876C127.825 234.936 131.36 234.521 134.855 233.954M21.418 147.75C22.515 128.576 25.651 115.793 32.765 101.5C47.539 71.816 76.757 49.896 108.5 44.682L116.5 43.367L116.783 32.184L117.066 21L90.533 21L64 21L64 10.5L64 0L128 0L192 0L192 10.5L192 21L165.467 21L138.934 21L139.217 32.184L139.5 43.367L147.5 44.681C179.123 49.872 208.575 71.966 223.243 101.5C230.356 115.822 233.486 128.59 234.582 147.75L235.283 160L224.282 160L213.28 160L212.718 146.25C212.095 130.996 210.063 122.061 204.857 111.671C195.865 93.727 180.166 78.911 161.5 70.75C153.71 67.344 137.112 64 128 64C118.888 64 102.29 67.344 94.5 70.75C75.834 78.911 60.135 93.727 51.143 111.671C45.857 122.221 43.855 131.011 43.271 146.25L42.744 160L31.73 160L20.717 160L21.418 147.75" />
    <glyph glyph-name="event-ticket"
      unicode="&#xEA4E;"
      horiz-adv-x="256" d="M0 186.5L0 149L7.75 148.978C13.149 148.963 16.714 148.394 19.5 147.104C32.434 141.116 35.997 124.899 26.704 114.316C22.038 109.001 16.962 107.048 7.75 107.022L0 107L0 69.5L0 32L128 32L256 32L256 69.5L256 107L248.25 107.022C239.494 107.047 234.191 108.945 229.803 113.624C219.908 124.177 223.268 140.978 236.5 147.104C239.286 148.394 242.851 148.963 248.25 148.978L256 149L256 186.5L256 224L128 224L0 224L0 186.5M234.774 185.75C234.997 172.133 234.793 169 233.684 169C230.639 169 220.129 162.761 215.681 158.313C206.795 149.427 203.033 140.257 203.012 127.428C202.993 116.085 207.07 106.516 215.696 97.659C220.038 93.202 230.551 87.003 233.774 87.001C234.767 87 234.988 83.296 234.774 70.25L234.5 53.5L127.75 53.245L21 52.991L21 69.995C21 82.932 21.299 87 22.25 87.001C25.452 87.003 35.977 93.217 40.304 97.659C48.93 106.516 53.007 116.085 52.988 127.428C52.967 140.257 49.205 149.427 40.319 158.313C35.887 162.744 25.364 169 22.34 169C21.272 169 21 172.457 21 186.005L21 203.009L127.75 202.755L234.5 202.5L234.774 185.75M75 149.5L75 139L128 139L181 139L181 149.5L181 160L128 160L75 160L75 149.5M75 106.5L75 96L128 96L181 96L181 106.5L181 117L128 117L75 117L75 106.5" />
    <glyph glyph-name="satisfied"
      unicode="&#xEA4F;"
      horiz-adv-x="256" d="M108.5 254.445C52.322 244.952 9.966 202.042 1.455 146C-4.588 106.211 9.673 64.918 39.355 36.262C89.265 -11.923 166.701 -11.955 216.569 36.188C251.144 69.568 264.019 118.019 250.578 164.176C240.645 198.288 215.397 227.737 182.581 243.487C160.111 254.271 132.044 258.423 108.5 254.445M139.047 233.947C155.39 232.27 173.266 225.796 187.91 216.251C195.179 211.513 211.571 195.089 216.36 187.746C228.462 169.189 234.294 149.534 234.237 127.5C234.16 97.643 222.697 71.184 200.88 50.5C159.958 11.703 96.042 11.703 55.12 50.5C33.239 71.244 21.825 97.587 21.759 127.5C21.709 149.564 27.489 169.131 39.487 187.515C44.409 195.057 60.729 211.453 68.09 216.251C85.279 227.455 105.094 233.809 126.144 234.867C127.598 234.94 133.404 234.526 139.047 233.947M77.734 190.973C69.419 188.879 60.321 181.744 56.73 174.5C54.594 170.191 53 161.836 53 154.951L53 149L64 149L75 149L75 156.277C75 164.579 76.394 167.431 81.495 169.562C83.917 170.574 85.655 170.658 88.417 169.895C93.759 168.42 95.992 164.254 95.996 155.75L96 149L106.613 149L117.227 149L116.832 159.25C116.484 168.292 116.091 170.132 113.5 174.859C110.229 180.829 104.777 185.961 98.458 189.021C93.607 191.369 83.199 192.349 77.734 190.973M161.792 190.66C153.439 188.301 146.211 182.153 141.756 173.616C140.087 170.417 139.515 167.217 139.191 159.25L138.773 149L149.387 149L160 149L160.004 155.75C160.008 164.254 162.241 168.42 167.583 169.895C170.345 170.658 172.083 170.574 174.505 169.562C179.606 167.431 181 164.579 181 156.277L181 149L192 149L203 149L203 154.951C203 162.201 201.367 170.303 198.959 175C196.392 180.007 189.278 186.561 183.776 188.987C177.754 191.643 167.924 192.391 161.792 190.66M53.342 116.684C54.483 96.705 59.429 83.146 70.395 69.936C79.578 58.874 90.775 51.127 104.5 46.341C111.924 43.752 113.616 43.551 128 43.551C142.384 43.551 144.076 43.752 151.5 46.341C165.225 51.127 176.422 58.874 185.605 69.936C196.578 83.154 201.402 96.369 202.606 116.501L203.294 128L192.147 128L181 128L181 118.71C181 102.333 176.364 90.657 165.507 79.693C144.565 58.544 111.435 58.544 90.493 79.693C79.636 90.657 75 102.333 75 118.71L75 128L63.848 128L52.695 128L53.342 116.684" />
    <glyph glyph-name="sad"
      unicode="&#xEA50;"
      horiz-adv-x="256" d="M108.5 254.445C52.322 244.952 9.966 202.042 1.455 146C-4.588 106.211 9.673 64.918 39.355 36.262C89.265 -11.923 166.701 -11.955 216.569 36.188C251.144 69.568 264.019 118.019 250.578 164.176C240.645 198.288 215.397 227.737 182.581 243.487C160.111 254.271 132.044 258.423 108.5 254.445M139.047 233.947C155.39 232.27 173.266 225.796 187.91 216.251C195.179 211.513 211.571 195.089 216.36 187.746C228.462 169.189 234.294 149.534 234.237 127.5C234.16 97.643 222.697 71.184 200.88 50.5C159.958 11.703 96.042 11.703 55.12 50.5C33.239 71.244 21.825 97.587 21.759 127.5C21.709 149.564 27.489 169.131 39.487 187.515C44.409 195.057 60.729 211.453 68.09 216.251C85.279 227.455 105.094 233.809 126.144 234.867C127.598 234.94 133.404 234.526 139.047 233.947M73.45 158.593C63.361 154.199 60.978 140.787 68.882 132.882C80.117 121.647 98.528 131.71 95.572 147.471C93.82 156.807 82.462 162.519 73.45 158.593M169.45 158.593C159.361 154.199 156.978 140.787 164.882 132.882C176.117 121.647 194.528 131.71 191.572 147.471C189.82 156.807 178.462 162.519 169.45 158.593M120.233 105.889C108.989 104.016 96.504 94.963 90.602 84.404C87.973 79.701 86.596 75.093 85.623 67.75L85.126 64L95.931 64L106.737 64L107.251 67.835C107.919 72.818 111.289 77.867 116.404 81.551C120.079 84.197 121.279 84.5 128.078 84.5C134.823 84.5 136.056 84.195 139.299 81.721C144.646 77.643 148.108 72.615 148.722 68.037L149.263 64L160.069 64L170.874 64L170.379 67.75C170.106 69.812 169.374 73.509 168.752 75.964C165.042 90.602 150.573 103.403 134.855 105.954C127.734 107.109 127.555 107.108 120.233 105.889" />
    <glyph glyph-name="shy"
      unicode="&#xEA51;"
      horiz-adv-x="256" d="M108.5 254.445C52.322 244.952 9.966 202.042 1.455 146C-4.588 106.211 9.673 64.918 39.355 36.262C89.265 -11.923 166.701 -11.955 216.569 36.188C251.144 69.568 264.019 118.019 250.578 164.176C240.645 198.288 215.397 227.737 182.581 243.487C160.111 254.271 132.044 258.423 108.5 254.445M139.047 233.947C155.39 232.27 173.266 225.796 187.91 216.251C195.179 211.513 211.571 195.089 216.36 187.746C228.462 169.189 234.294 149.534 234.237 127.5C234.16 97.643 222.697 71.184 200.88 50.5C159.958 11.703 96.042 11.703 55.12 50.5C33.239 71.244 21.825 97.587 21.759 127.5C21.709 149.564 27.489 169.131 39.487 187.515C44.409 195.057 60.729 211.453 68.09 216.251C85.279 227.455 105.094 233.809 126.144 234.867C127.598 234.94 133.404 234.526 139.047 233.947M73.45 158.593C63.361 154.199 60.978 140.787 68.882 132.882C80.117 121.647 98.528 131.71 95.572 147.471C93.82 156.807 82.462 162.519 73.45 158.593M169.45 158.593C159.361 154.199 156.978 140.787 164.882 132.882C176.117 121.647 194.528 131.71 191.572 147.471C189.82 156.807 178.462 162.519 169.45 158.593" />
    <glyph glyph-name="warning"
      unicode="&#xEA52;"
      horiz-adv-x="256" d="M108.5 254.445C52.322 244.952 9.966 202.042 1.455 146C-4.588 106.211 9.673 64.918 39.355 36.262C89.265 -11.923 166.701 -11.955 216.569 36.188C251.144 69.568 264.019 118.019 250.578 164.176C240.645 198.288 215.397 227.737 182.581 243.487C160.111 254.271 132.044 258.423 108.5 254.445M139.047 233.947C155.39 232.27 173.266 225.796 187.91 216.251C195.179 211.513 211.571 195.089 216.36 187.746C228.462 169.189 234.294 149.534 234.237 127.5C234.16 97.643 222.697 71.184 200.88 50.5C159.958 11.703 96.042 11.703 55.12 50.5C33.239 71.244 21.825 97.587 21.759 127.5C21.709 149.564 27.489 169.131 39.487 187.515C44.409 195.057 60.729 211.453 68.09 216.251C85.279 227.455 105.094 233.809 126.144 234.867C127.598 234.94 133.404 234.526 139.047 233.947M117 149.5L117 107L128 107L139 107L139 149.5L139 192L128 192L117 192L117 149.5M120.789 82.102C112.622 74.806 120.473 61.552 131.148 64.614C135.486 65.858 138.455 70.136 138.455 75.145C138.455 80.651 133.841 85 128 85C125.035 85 123.212 84.268 120.789 82.102" />
    <glyph glyph-name="logo-instagram"
      unicode="&#xEA53;"
      horiz-adv-x="256" d="M128 232.9386666666667C162.176 232.9386666666667 166.2293333333333 232.8106666666667 179.7226666666667 232.192C194.2933333333334 231.5306666666667 207.808 228.608 218.208 218.208C228.608 207.808 231.5306666666667 194.2933333333334 232.192 179.7226666666667C232.8106666666667 166.2293333333333 232.9386666666667 162.176 232.9386666666667 128S232.8106666666667 89.7706666666667 232.192 76.2773333333333C231.5306666666667 61.7066666666667 228.608 48.192 218.208 37.792C207.808 27.392 194.2933333333333 24.4693333333333 179.7226666666667 23.808C166.2293333333333 23.1893333333333 162.176 23.0613333333333 128 23.0613333333333S89.7706666666667 23.1893333333333 76.2773333333333 23.808C61.7066666666667 24.4693333333333 48.192 27.392 37.792 37.792C27.392 48.192 24.4693333333333 61.7066666666667 23.808 76.2773333333333C23.1893333333333 89.7706666666667 23.0613333333333 93.824 23.0613333333333 128S23.1893333333333 166.2293333333333 23.808 179.7226666666667C24.4693333333333 194.2933333333334 27.392 207.808 37.792 218.208C48.192 228.608 61.7066666666667 231.5306666666667 76.2773333333333 232.192C89.7706666666667 232.8106666666667 93.824 232.9386666666667 128 232.9386666666667M128 256C93.2373333333333 256 88.8746666666667 255.8506666666667 75.2213333333333 255.232C54.4213333333333 254.2826666666667 36.1493333333333 249.184 21.4826666666667 234.5173333333334C6.816 219.8506666666667 1.7173333333333 201.5786666666667 0.768 180.7786666666667C0.1493333333333 167.1253333333334 0 162.7626666666667 0 128C0 93.2373333333333 0.1493333333333 88.8746666666667 0.768 75.2213333333334C1.7173333333333 54.4213333333333 6.816 36.1493333333333 21.4826666666667 21.4826666666667C36.1493333333333 6.816 54.4213333333333 1.7173333333334 75.2213333333333 0.768C88.8746666666667 0.1493333333333 93.2373333333333 0 128 0S167.1253333333334 0.1493333333333 180.7786666666667 0.768C201.5786666666667 1.7173333333333 219.8506666666667 6.816 234.5173333333333 21.4826666666667C249.184 36.1493333333333 254.2826666666667 54.4213333333333 255.232 75.2213333333333C255.8506666666667 88.8746666666667 256 93.2373333333333 256 128S255.8506666666667 167.1253333333334 255.232 180.7786666666667C254.2826666666667 201.5786666666667 249.184 219.8506666666667 234.5173333333334 234.5173333333334C219.8506666666667 249.184 201.5786666666667 254.2826666666667 180.7786666666667 255.232C167.1253333333333 255.8506666666667 162.7626666666667 256 128 256L128 256zM128 193.728C91.7013333333333 193.728 62.272 164.2986666666667 62.272 128S91.7013333333333 62.272 128 62.272S193.728 91.7013333333334 193.728 128S164.2986666666667 193.728 128 193.728zM128 85.3333333333333C104.4373333333333 85.3333333333333 85.3333333333333 104.4373333333334 85.3333333333333 128S104.4373333333333 170.6666666666667 128 170.6666666666667S170.6666666666667 151.5626666666667 170.6666666666667 128S151.5626666666667 85.3333333333333 128 85.3333333333333zM180.9706666666666 196.3306666666667A15.36 15.36 0 0 1 211.6906666666667 196.3306666666667A15.36 15.36 0 0 1 180.9706666666666 196.3306666666667" />
    <glyph glyph-name="event-ticket-fill"
      unicode="&#xEA54;"
      horiz-adv-x="256" d="M245.3333333333333 149.3333333333334C251.232 149.3333333333334 256 154.1013333333334 256 160V213.3333333333334C256 219.232 251.232 224 245.3333333333333 224H10.6666666666667C4.768 224 0 219.232 0 213.3333333333334V160C0 154.1013333333334 4.768 149.3333333333333 10.6666666666667 149.3333333333333C22.432 149.3333333333333 32 139.7653333333333 32 128S22.432 106.6666666666667 10.6666666666667 106.6666666666667C4.768 106.6666666666667 0 101.8986666666667 0 96V42.6666666666667C0 36.768 4.768 32 10.6666666666667 32H245.3333333333333C251.232 32 256 36.768 256 42.6666666666667V96C256 101.8986666666667 251.232 106.6666666666667 245.3333333333333 106.6666666666667C233.568 106.6666666666667 224 116.2346666666667 224 128S233.568 149.3333333333334 245.3333333333333 149.3333333333334zM181.3333333333333 96H74.6666666666667V117.3333333333334H181.3333333333333V96zM181.3333333333333 138.6666666666667H74.6666666666667V160H181.3333333333333V138.6666666666667z" />
    <glyph glyph-name="download-fill"
      unicode="&#xEA55;"
      horiz-adv-x="256" d="M234.6666666666667 256H21.3333333333333C15.4453333333333 256 10.6666666666667 251.2213333333334 10.6666666666667 245.3333333333334V10.6666666666667C10.6666666666667 4.7786666666667 15.4453333333333 0 21.3333333333333 0H234.6666666666667C240.5546666666667 0 245.3333333333333 4.7786666666667 245.3333333333333 10.6666666666667V245.3333333333334C245.3333333333333 251.2213333333334 240.5546666666667 256 234.6666666666667 256zM135.5413333333334 67.1253333333334C133.4613333333333 65.0453333333333 130.7306666666667 64 128 64S122.5386666666667 65.0453333333333 120.4586666666667 67.1253333333334L70.2506666666667 117.3333333333334L85.3333333333333 132.416L117.3333333333333 100.416V181.3333333333334H138.6666666666667V100.416L170.6666666666667 132.416L185.7493333333334 117.3333333333334L135.5413333333334 67.1253333333334z" />
    <glyph glyph-name="belgium"
      unicode="&#xEA56;"
      horiz-adv-x="256" d="M85.3333333333333 224H170.6666666666667V32H85.3333333333333V224zM256 42.6666666666667C256 36.7733333333333 251.2266666666667 32 245.3333333333334 32H170.6666666666667V224H245.3333333333333C251.2266666666667 224 256 219.2266666666667 256 213.3333333333334V42.6666666666667zM85.3333333333333 32H10.6666666666667C4.7733333333333 32 0 36.7733333333333 0 42.6666666666667V213.3333333333334C0 219.2266666666667 4.7733333333333 224 10.6666666666667 224H85.3333333333333V32z" />
    <glyph glyph-name="swiss"
      unicode="&#xEA57;"
      horiz-adv-x="256" d="M256 42.6666666666667C256 36.7733333333333 251.2266666666667 32 245.3333333333334 32H10.6666666666667C4.7733333333333 32 0 36.7733333333334 0 42.6666666666667V213.3333333333334C0 219.2266666666667 4.7733333333333 224 10.6666666666667 224H245.3333333333333C251.2266666666667 224 256 219.2266666666667 256 213.3333333333334V42.6666666666667zM186.6666666666667 106.6666666666667H69.3333333333333C66.3893333333333 106.6666666666667 64 109.056 64 112V144C64 146.944 66.3893333333333 149.3333333333334 69.3333333333333 149.3333333333334H186.6666666666667C189.6106666666667 149.3333333333334 192 146.944 192 144V112C192 109.056 189.6106666666667 106.6666666666667 186.6666666666667 106.6666666666667zM144 64H112C109.056 64 106.6666666666667 66.3893333333333 106.6666666666667 69.3333333333333V186.6666666666667C106.6666666666667 189.6106666666667 109.056 192 112 192H144C146.944 192 149.3333333333334 189.6106666666667 149.3333333333334 186.6666666666667V69.3333333333333C149.3333333333333 66.3893333333334 146.944 64 144 64z" />
    <glyph glyph-name="home"
      unicode="&#xEA58;"
      horiz-adv-x="256" d="M73.449 203.874C43.777 179.605 16 156.857 11.723 153.323L3.946 146.898L10.148 139.4C13.56 135.275 16.714 131.677 17.158 131.403C17.601 131.128 42.723 151.17 72.982 175.94L128 220.977L183.018 175.94C213.277 151.17 238.399 131.128 238.842 131.403C239.286 131.677 242.44 135.275 245.852 139.4L252.054 146.898L244.277 153.323C211.422 180.468 128.483 248 128 248C127.669 248 103.121 228.143 73.449 203.874M32 64L32 0L128 0L224 0L224 64L224 128L213.509 128L203.018 128L202.759 74.75L202.5 21.5L181.25 21.23L160 20.96L160 52.98L160 85L128 85L96 85L96 53L96 21L74.5 21L53 21L53 74.5L53 128L42.5 128L32 128L32 64M138.77 42.75L138.5 21.5L128 21.5L117.5 21.5L117.23 42.75L116.96 64L128 64L139.04 64L138.77 42.75" />
    <glyph glyph-name="system-update"
      unicode="&#xEA59;"
      horiz-adv-x="256" d="M0 128L0 21L128 21L256 21L256 128L256 235L213.5 235L171 235L171 224L171 213L203 213L235 213L235 128L235 43L128 43L21 43L21 128L21 213L53 213L85 213L85 224L85 235L42.5 235L0 235L0 128M117 167.759L117 111.518L96.241 132.259C84.824 143.667 75.024 153 74.464 153C73.905 153 70.315 149.844 66.488 145.987L59.529 138.975L93.764 104.739L128 70.504L162.236 104.739L196.471 138.975L189.512 145.987C185.685 149.844 182.095 153 181.536 153C180.976 153 171.176 143.667 159.759 132.259L139 111.518L139 167.759L139 224L128 224L117 224L117 167.759" />
    <glyph glyph-name="a-sync-2"
      unicode="&#xEA5B;"
      horiz-adv-x="256" d="M96 128L96 128C66.5493333333333 128 42.6666666666667 162.5493333333333 42.6666666666667 192V202.6666666666667C42.6666666666667 232.1173333333334 66.5493333333333 256 96 256H96C125.4506666666667 256 149.3333333333333 232.1173333333334 149.3333333333333 202.6666666666667V192C149.3333333333333 162.5493333333334 125.4506666666667 128 96 128zM106.6666666666667 53.3333333333333C106.6666666666667 72.6613333333334 113.1626666666667 90.4213333333333 124 104.7253333333333C115.136 105.8986666666667 105.7813333333333 106.6666666666667 96 106.6666666666667C65.8773333333333 106.6666666666667 39.1573333333333 99.8613333333334 21.6106666666667 93.9413333333334C8.64 89.5573333333334 0 77.344 0 63.6586666666667V21.3333333333333H112.928C108.9173333333333 31.2213333333334 106.6666666666667 42.0053333333333 106.6666666666667 53.3333333333333zM192 96C200.6186666666667 96 208.7786666666667 92.4693333333333 214.7306666666667 86.4746666666667L197.5786666666667 74.016L243.1146666666667 64L247.68 110.4106666666667L232.0426666666667 99.0506666666666C222.016 110.464 207.4773333333333 117.3333333333334 192 117.3333333333334C167.6586666666667 117.3333333333334 146.4213333333333 100.8853333333333 140.3413333333334 77.3333333333333L161.0133333333334 72.0106666666667C164.6506666666667 86.1333333333333 177.3866666666667 96 192 96zM192 21.3333333333333C183.3813333333334 21.3333333333333 175.2213333333334 24.864 169.2693333333334 30.8586666666667L186.4213333333333 43.3173333333333L140.8853333333333 53.3333333333333L136.32 6.9226666666667L151.9573333333334 18.2826666666667C161.984 6.8693333333333 176.5226666666667 0 192 0C216.3413333333333 0 237.5786666666667 16.448 243.6586666666667 40L222.9866666666667 45.3226666666667C219.3493333333333 31.2 206.6133333333334 21.3333333333333 192 21.3333333333333z" />
    <glyph glyph-name="c-remove"
      unicode="&#xEA5C;"
      horiz-adv-x="256" d="M108.5 254.445C52.322 244.952 9.966 202.042 1.455 146C-4.588 106.211 9.673 64.918 39.355 36.262C89.265 -11.923 166.701 -11.955 216.569 36.188C251.144 69.568 264.019 118.019 250.578 164.176C240.645 198.288 215.397 227.737 182.581 243.487C160.111 254.271 132.044 258.423 108.5 254.445M139.047 233.947C155.39 232.27 173.266 225.796 187.91 216.251C195.179 211.513 211.571 195.089 216.36 187.746C228.462 169.189 234.294 149.534 234.237 127.5C234.16 97.643 222.697 71.184 200.88 50.5C159.958 11.703 96.042 11.703 55.12 50.5C33.239 71.244 21.825 97.587 21.759 127.5C21.709 149.564 27.489 169.131 39.487 187.515C44.409 195.057 60.729 211.453 68.09 216.251C85.279 227.455 105.094 233.809 126.144 234.867C127.598 234.94 133.404 234.526 139.047 233.947M77.723 178.225C74.025 174.499 71 171.015 71 170.484C71 169.952 80.333 160.176 91.741 148.759L112.482 128L91.741 107.241C80.333 95.824 71 86.024 71 85.464C71 84.173 84.22 71 85.516 71C86.048 71 95.824 80.333 107.241 91.741L128 112.482L148.759 91.741C160.176 80.333 169.976 71 170.536 71C171.095 71 174.68 74.15 178.5 78L185.446 85L178.481 92.25C174.649 96.238 165.216 105.913 157.518 113.752L143.522 128.004L164.261 148.761C175.667 160.177 185 169.976 185 170.536C185 171.827 171.78 185 170.484 185C169.952 185 160.176 175.667 148.759 164.259L128 143.518L107.241 164.259C95.824 175.667 86.024 185 85.464 185C84.905 185 81.421 181.951 77.723 178.225" />
    <glyph glyph-name="logout"
      unicode="&#xEA5D;"
      horiz-adv-x="256" d="M43 128L43 0L128 0L213 0L213 26.5L213 53L202.5 53L192 53L192 37L192 21L128 21L64 21L64 128L64 235L128 235L192 235L192 219L192 203L202.5 203L213 203L213 229.5L213 256L128 256L43 256L43 128M173.723 178.225C170.025 174.499 167 171.016 167 170.487C167 169.957 173.857 162.656 182.238 154.262L197.476 139L146.738 139L96 139L96 128L96 117L146.738 117L197.476 117L182.238 101.738C173.857 93.344 167 86.02 167 85.461C167 84.162 180.226 71 181.532 71C182.071 71 195.332 83.825 211 99.5L239.487 128L211 156.5C195.332 172.175 182.048 185 181.48 185C180.911 185 177.421 181.951 173.723 178.225" />
    </font>
</defs>
</svg>
